Скачать порно через торрент Sweet Russian Teen Brunette Olga in the Kitchen Hard Fuck UnionPeer.org бесплатно онлайн HD качество

Скачать новое порно 2015, 2014 новинки через торрент UnionPeer.org

Порно торрент бесплатно ЮнионПир.орг

Если у вас наблюдаются проблемы со скриншотами, переходом по ссылками, скачиванием торрентов - проблемы в блокировщике рекламы AdBlock. #хорошегоДня!


Статистика раздачи
Размер:  244 MB   |    Зарегистрирован:  4 года 2 месяца   |    .torrent скачан:  204 раза   |   
Раздают:  1  
   
Загрузка...
 
Автор Сообщение

Galfimbul

avatar Galfimbul


Sweet Russian Teen Brunette Olga in the Kitchen Hard Fuck

Жанр: teen russian brunette olga hardcore natural.tits blowjob facial cumshot
Продолжительность: 21:37

Описание: Very cute russian brunette girl good fucking her boyfriend. Couple does blowjob and hard fuck.

Доп. информация: File Size: 244 Mb | Resolution: 640x480 | Duration: 21:37 | Format: .avi

Format : AVI
Format/Info : Audio Video Interleave
File size : 244 MiB
Duration : 21mn 37s
Overall bit rate : 1 577 Kbps
Writing application : Lavf52.39.1

Video
ID : 0
Format : MPEG-4 Visual
Format profile : Simple@L1
Format settings, BVOP : No
Format settings, QPel : No
Format settings, GMC : No warppoints
Format settings, Matrix : Default (H.263)
Codec ID : FMP4
Duration : 21mn 37s
Bit rate : 1 500 Kbps
Width : 640 pixels
Height : 480 pixels
Display aspect ratio : 4:3
Frame rate : 29.970 fps
Color space : YUV
Chroma subsampling : 4:2:0
Bit depth : 8 bits
Scan type : Progressive
Compression mode : Lossy
Bits/(Pixel*Frame) : 0.163
Stream size : 232 MiB (95%)
Writing library : Lavc52.37.0

Audio
ID : 1
Format : MPEG Audio
Format version : Version 1
Format profile : Layer 3
Mode : Joint stereo
Mode extension : MS Stereo
Codec ID : 55
Codec ID/Hint : MP3
Duration : 21mn 37s
Bit rate mode : Constant
Bit rate : 64.0 Kbps
Channel(s) : 2 channels
Sampling rate : 48.0 KHz
Compression mode : Lossy
Stream size : 9.90 MiB (4%)
Alignment : Aligned on interleaves
Interleave, duration : 24 ms (0.72 video frame)
Interleave, preload duration : 24 ms
Writing library : LAME3.96.1

Качество видео: DVDRip
Формат видео: AVI
Видео кодек: MPEG2
Аудио кодек: MP3
Видео: 234 MB, 1514 Kbps, 29.970 fps, 640*480 (4:3), FMP4 = Unknown
Аудио: 9.89 MB, 64 Kbps, 48000 Hz, 2 channels, 0x55 = MPEG Layer-3

Трекер:  [ 01-Июн-2013 16:05 ]

  

Скачать .torrent

Размер .torrent файла 820 B


Размер: 244 MB
Хэш (hash) релиза: 50f84efa98111a2c8eb8478c005f081739e63ea7

Еще никто не оставлял запись к записи скачать торрент Sweet Russian Teen Brunette Olga in the Kitchen Hard Fuck . Будь первым!

!Обратная связь