Скачать порно через торрент Sweet Blonde Teen Vicktoria Loves Hard Anal Fuck UnionPeer.org бесплатно онлайн HD качество

Скачать новое порно 2015, 2014 новинки через торрент UnionPeer.org

Порно торрент бесплатно ЮнионПир.орг

Если у вас наблюдаются проблемы со скриншотами, переходом по ссылками, скачиванием торрентов - проблемы в блокировщике рекламы AdBlock. #хорошегоДня!


Статистика раздачи
Размер:  380 MB   |    Зарегистрирован:  4 года 2 месяца   |    .torrent скачан:  168 раз   |   
Раздают:  1  
   
Загрузка...
 
Автор Сообщение

Galfimbul

avatar Galfimbul


Sweet Blonde Teen Vicktoria Loves Hard Anal Fuck

Страна: США
Жанр: teen anal blonde victoria pornstar natural.tits pussy.licking hardcore
Продолжительность: 30:59

Описание: Couple fun in the bedroom. Couple does oral play and doggystyle/anal fuck.
Format : AVI
Format/Info : Audio Video Interleave
File size : 380 MiB
Duration : 30mn 59s
Overall bit rate : 1 714 Kbps
Writing application : Lavf52.39.1

Video
ID : 0
Format : AVC
Format/Info : Advanced Video Codec
Format profile : Baseline@L5.1
Format settings, CABAC : No
Format settings, ReFrames : 1 frame
Format settings, GOP : M=1, N=12
Codec ID : H264
Duration : 30mn 59s
Bit rate : 1 620 Kbps
Width : 768 pixels
Height : 432 pixels
Display aspect ratio : 16:9
Frame rate : 29.000 fps
Color space : YUV
Chroma subsampling : 4:2:0
Bit depth : 8 bits
Scan type : Progressive
Bits/(Pixel*Frame) : 0.168
Stream size : 363 MiB (95%)
Writing library : x264 core 57
Encoding settings : cabac=0 / ref=1 / deblock=0:0:0 / analyse=0x1:0 / me=dia / subme=7 / brdo=0 / mixed_ref=0 / me_range=4 / chroma_me=0 / trellis=0 / 8x8dct=0 / cqm=0 / deadzone=21,11 / chroma_qp_offset=0 / threads=1 / nr=0 / decimate=1 / mbaff=0 / bframes=0 / keyint=12 / keyint_min=7 / scenecut=0 / rc=abr / bitrate=1620 / ratetol=2.5 / rceq='tex^qComp' / qcomp=0.50 / qpmin=2 / qpmax=31 / qpstep=3 / ip_ratio=1.25

Audio
ID : 1
Format : MPEG Audio
Format version : Version 1
Format profile : Layer 3
Codec ID : 55
Codec ID/Hint : MP3
Duration : 30mn 59s
Bit rate mode : Constant
Bit rate : 64.0 Kbps
Channel(s) : 1 channel
Sampling rate : 44.1 KHz
Compression mode : Lossy
Stream size : 14.2 MiB (4%)
Alignment : Aligned on interleaves
Interleave, duration : 26 ms (0.76 video frame)
Качество видео: DVDRip
Формат видео: AVI
Видео кодек: H.264/AVC
Аудио кодек: MP3
Видео: 365 MB, 1650 Kbps, 29.0 fps, 768*432 (16:9), H264 = H 264
Аудио: 14.18 MB, 64 Kbps, 44100 Hz, 1 channels, 0x55 = MPEG Layer-3

Трекер:  [ 01-Июн-2013 16:03 ]

  

Скачать .torrent

Размер .torrent файла 1 KB


Размер: 380 MB
Хэш (hash) релиза: d0ab16df41c3028b65cd72b91726ec9ac58f02b0

Еще никто не оставлял запись к записи скачать торрент Sweet Blonde Teen Vicktoria Loves Hard Anal Fuck . Будь первым!

!Обратная связь