Скачать порно через торрент Дрочливый Пивовар UnionPeer.org бесплатно онлайн HD качество

Скачать новое порно 2015, 2014 новинки через торрент UnionPeer.org

Порно торрент бесплатно ЮнионПир.орг

Если у вас наблюдаются проблемы со скриншотами, переходом по ссылками, скачиванием торрентов - проблемы в блокировщике рекламы AdBlock. #хорошегоДня!


Статистика раздачи
Размер:  4.93 GB   |    Зарегистрирован:  4 года 2 месяца   |    .torrent скачан:  501 раз   |   
Раздают:  1   Качают:  1  
   
Загрузка...
 
Автор Сообщение

damien1990


Дрочливый Пивовар

Год производства: 2013 г.
Жанр: All Sex, creampie, beer
Продолжительность: 00:57:17

Описание: КРАСНЫЙ ЭЛЕКТРИК!

Тип HD видео: 1080p
Качество видео: CamRip
Формат видео: MP4
Видео кодек: H.264/AVC
Аудио кодек: AAC
Видео:
ID : 2
Format : AVC
Format/Info : Advanced Video Codec
Format profile : Main@L4.0
Format settings, CABAC : Yes
Format settings, ReFrames : 3 frames
Format settings, GOP : M=4, N=15
Codec ID : avc1
Codec ID/Info : Advanced Video Coding
Duration : 57mn 17s
Bit rate mode : Variable
Bit rate : 12.0 Mbps
Maximum bit rate : 24.0 Mbps
Width : 1 920 pixels
Height : 1 080 pixels
Display aspect ratio : 16:9
Frame rate mode : Constant
Frame rate : 25.000 fps
Standard : NTSC
Color space : YUV
Chroma subsampling : 4:2:0
Bit depth : 8 bits
Scan type : Progressive
Bits/(Pixel*Frame) : 0.231
Stream size : 4.80 GiB (97%)
Аудио:
ID : 1
Format : AAC
Format/Info : Advanced Audio Codec
Format profile : LC
Codec ID : 40
Duration : 57mn 17s
Bit rate mode : Constant
Bit rate : 320 Kbps
Channel(s) : 2 channels
Channel positions : Front: L R
Sampling rate : 48.0 KHz
Compression mode : Lossy
Stream size : 133 MiB (3%)

Трекер:  [ 28-Май-2013 21:23 ]

  

Скачать .torrent

Размер .torrent файла 13 KB


Размер: 4.93 GB
Хэш (hash) релиза: 89d04c94768eed2760e9c9061195e91355eaa240

Торренты, похожие на Дрочливый Пивовар скачать торрент

Форум Название Автор Размер S L Добавлен
Русское любительское видео ·· Дрочливый Пивовар [2013 г., All Sex, creampie, beer, HDrip, 540p] [2013 г., Home] Galfimbul 13459084511.25 GB 1 1 1426715375

00:49

19-Мар-15

Русское любительское видео ·· Дрочливый Пивовар [2013 г., All Sex, creampie, beer, HDrip] Galfimbul 905688590864 MB 0 0 1426525889

20:11

16-Мар-15

Еще никто не оставлял запись к записи скачать торрент Дрочливый Пивовар . Будь первым!

!Обратная связь