Скачать порно через торрент Allie Haze And Xander Corus 3D UnionPeer.org бесплатно онлайн HD качество

Скачать новое порно 2015, 2014 новинки через торрент UnionPeer.org

Порно торрент бесплатно ЮнионПир.орг

Если у вас наблюдаются проблемы со скриншотами, переходом по ссылками, скачиванием торрентов - проблемы в блокировщике рекламы AdBlock. #хорошегоДня!


Статистика раздачи
Размер:  1.52 GB   |    Зарегистрирован:  4 года 2 месяца   |    .torrent скачан:  187 раз   |   
Раздают:  1  
   
Загрузка...
 
Автор Сообщение

Igorek_Sh

avatar Igorek_Sh


Allie Haze And Xander Corus 3D

Год производства: 2011 г.
Страна: США
Жанр: All Sex, 3D
Продолжительность: 00:21:54

Режиссер: Cash Markman
Студия: Penthouse

Язык: Английский
В ролях: Allie Haze, Xander Corus

Описание: Съемки фильма перешли в порнуху, она и он на диване жгут не по детски.

Проверено на встроенном плейере ТВ Samsung UE55 D6100

Тип HD видео: 720p
Формат 3D: Half SideBySide / Горизонтальная анаморфная стереопара
Качество видео: BDRip
Формат видео: MKV
Видео кодек: H.264/AVC
Аудио кодек: AC3
Видео: MPEG4 Video (H264) / 1280x720 / 59.94fps / 9520 Kbps
Аудио: English / Dolby AC3 / 48000Hz / stereo / 224 Kbps

Общее
Уникальный идентификатор : 195522169359470933914729127568839106743 (0x931833382FDFFC5E998FEE2056C160B7)
Полное имя : D:\Download\Adult content\Allie Haze And Xander Corus 3D 2011 BDRip halfSbS 720p (IgorekSh).mkv
Формат : Matroska
Версия формата : Version 2
Размер файла : 1,52 Гбайт
Продолжительность : 21 м.
Общий поток : 9942 Кбит/сек
Название фильма : Real.Porn.Stars.Of.Chatsworth.3D.-.XXX.AC3.BD-x264.720p.-.NoName
Дата кодирования : UTC 2011-05-25 19:54:58
Программа кодирования : mkvmerge v4.0.0 ('The Stars were mine') сборка от Jun 6 2010 16:18:42
Библиотека кодирования : libebml v1.0.0 + libmatroska v1.0.0

Видео
Идентификатор : 1
Формат : AVC
Формат/Информация : Advanced Video Codec
Профиль формата : High@L5.1
Параметр CABAC формата : Да
Параметр ReFrames формата : 2 кадра
Идентификатор кодека : V_MPEG4/ISO/AVC
Продолжительность : 21 м.
Битрейт : 9520 Кбит/сек
Ширина : 1280 пикселей
Высота : 720 пикселей
Соотношение сторон : 16:9
Режим частоты кадров : Постоянный
Частота кадров : 59,880 кадров/сек
Частота кадров в оригинале : 59,940 кадров/сек
Цветовое пространство : YUV
Субдискретизация насыщенности : 4:2:0
Битовая глубина : 8 бит
Тип развёртки : Прогрессивная
Бит/(Пиксели*Кадры) : 0.173
Размер потока : 1,46 Гбайт (96%)
Default : Да
Forced : Нет
Основные цвета : BT.709
Характеристики трансфера : BT.709
Коэффициенты матрицы : BT.709

Аудио
Идентификатор : 2
Формат : AC-3
Формат/Информация : Audio Coding 3
Расширение режима : CM (complete main)
Параметр Endianness формата : Big
Идентификатор кодека : A_AC3
Продолжительность : 21 м.
Вид битрейта : Постоянный
Битрейт : 224 Кбит/сек
Каналы : 2 канала
Расположение каналов : Front: L R
Частота : 48,0 КГц
Битовая глубина : 16 бит
Метод сжатия : С потерями
Задержка видео : 20 мс.
Размер потока : 35,1 Мбайт (2%)
Язык : English
Default : Да
Forced : Нет

Меню
00:00:00.000 : en:(24)01:19:35:003
00:00:38.205 : en:(25)01:20:47:209
00:03:25.121 : en:(26)01:23:34:125
00:07:34.437 : en:(27)01:27:43:441
00:11:21.581 : en:(28)01:31:30:585
00:15:07.723 : en:(29)01:35:16:727
00:18:23.252 : en:(30)01:38:32:256
00:19:48.921 : en:(31)01:39:57:925
00:21:21.113 : en:(32)01:41:30:117


Трекер:  [ 28-Май-2013 14:25 ]

  

Скачать .torrent

Размер .torrent файла 16 KB


Размер: 1.52 GB
Хэш (hash) релиза: fac68bfab6832d0f9208114245366b021160ab1f

Еще никто не оставлял запись к записи скачать торрент Allie Haze And Xander Corus 3D . Будь первым!

!Обратная связь