Скачать через торрент музыку Marilyn Monroe - Marilyn Monroe Sings! - 2012, FLAC бесплатно без регистрации torrent

Если у вас наблюдаются проблемы со скриншотами, переходом по ссылками, скачиванием торрентов - проблемы в блокировщике рекламы AdBlock. #хорошегоДня!


Статистика раздачи
Размер:  468 MB   |    Зарегистрирован:  4 года 5 месяцев   |    .torrent скачан:  116 раз   |   
Раздают:  1  
   
Загрузка...
 
Автор Сообщение

L


Marilyn Monroe / Marilyn Monroe Sings!

Жанр: Jazz, Pop
Страна-производитель диска: Греция
Год издания: 2012
Издатель (лейбл): Spicy
Страна: USA
Аудиокодек: FLAC (*.flac)
Тип рипа: image+.cue
Битрейт аудио: lossless
Продолжительность: 01:34:51
Источник (релизер): авакс, Speedyclick
Наличие сканов в содержимом раздачи: да
Треклист:
01. Diamonds are a girl''s best friend
02. When I fall in love
03. One silver dollar
04. Happy birthda Mr. President
05. Do it again
06. Lazy
07. My heart belong to daddy
08. A man chases a girl
09. Every baby needs a da-da-daddy
10. Bye bye baby
11. When love goes wrong
12. I''m through with love
13. A little girl from a little rock
14. I found a dream
15. Alexander''s ragtime band, There''s no business like show business
16. Let''s make love
17. You'' d be surprised
Exact Audio Copy V1.0 beta 3 from 29. August 2011

EAC extraction logfile from 11. August 2012, 11:53

Marilyn Monroe / Runnin'' wild (cd 1)

Used drive : HL-DT-STDVDRAM GH10N Adapter: 1 ID: 1

Read mode : SecureUtilize accurate stream : YesDefeat audio cache : YesMake use of C2 pointers : No

Read offset correction : 667Overread into Lead-In and Lead-Out : NoFill up missing offset samples with silence : YesDelete leading and trailing silent blocks : NoNull samples used in CRC calculations : YesUsed interface : Native Win32 interface for Win NT & 2000

Used output format : User Defined EncoderSelected bitrate : 1024 kBit/sQuality : HighAdd ID3 tag : YesCommand line compressor : C:\Program Files\Exact Audio Copy New\Flac\flac.exeAdditional command line options : -V -5 -T "artist=%artist%" -T "title=%title%" -T "album=%albumtitle%" -T "tracknumber=%tracknr2%" -T "genre=%genre%" -5 %source%

TOC of the extracted CD

Track | Start | Length | Start sector | End sector --------------------------------------------------------- 1 | 0:00.00 | 3:31.58 | 0 | 15882 2 | 3:31.58 | 2:59.05 | 15883 | 29312 3 | 6:30.63 | 2:02.00 | 29313 | 38462 4 | 8:32.63 | 2:01.66 | 38463 | 47603 5 | 10:34.54 | 3:12.39 | 47604 | 62042 6 | 13:47.18 | 3:34.16 | 62043 | 78108 7 | 17:21.34 | 5:08.24 | 78109 | 101232 8 | 22:29.58 | 5:05.52 | 101233 | 124159 9 | 27:35.35 | 2:54.32 | 124160 | 137241 10 | 30:29.67 | 2:01.27 | 137242 | 146343 11 | 32:31.19 | 3:27.60 | 146344 | 161928 12 | 35:59.04 | 2:31.09 | 161929 | 173262 13 | 38:30.13 | 3:02.52 | 173263 | 186964 14 | 41:32.65 | 0:50.32 | 186965 | 190746 15 | 42:23.22 | 2:21.39 | 190747 | 201360 16 | 44:44.61 | 3:47.50 | 201361 | 218435 17 | 48:32.36 | 3:01.44 | 218436 | 232054

Range status and errors

Selected range

Filename S:\MUSIC\Marilyn Monroe - Sings (2CD)\MMS1\Marilyn Monroe - Runnin'' wild (cd 1).wav

Peak level 98.8 % Extraction speed 5.8 X Range quality 100.0 % Test CRC 5A79E367 Copy CRC 5A79E367 Copy OK

No errors occurred

AccurateRip summary

Track 1 not present in databaseTrack 2 not present in databaseTrack 3 not present in databaseTrack 4 not present in databaseTrack 5 not present in databaseTrack 6 not present in databaseTrack 7 not present in databaseTrack 8 not present in databaseTrack 9 not present in databaseTrack 10 not present in databaseTrack 11 not present in databaseTrack 12 not present in databaseTrack 13 not present in databaseTrack 14 not present in databaseTrack 15 not present in databaseTrack 16 not present in databaseTrack 17 not present in database

None of the tracks are present in the AccurateRip database

End of status report

---- CUETools DB Plugin V2.1.3

[CTDB TOCID: VHeIXrVz7kjcLiVHvXFQ6uSnEeM-] found, Submit result: VHeIXrVz7kjcLiVHvXFQ6uSnEeM- has been confirmed[8567defe] (1/1) Accurately ripped

==== Log checksum 0B6BDAA8E07FAEEFC2BEA0B4C7B32751BDAEC3D77B034D56A6FA537094ECD248 ====
REM GENRE SoundtrackREM DISCID E10C1611REM COMMENT "ExactAudioCopy v1.0b3"PERFORMER "Marilyn Monroe"TITLE "Marilyn Monroe Sings! CD1"FILE "Marilyn Monroe - Marilyn Monroe Sings! CD1.flac" WAVE TRACK 01 AUDIO TITLE "Diamonds are a girl''s best friend" PERFORMER "Marilyn Monroe" INDEX 01 00:00:00 TRACK 02 AUDIO TITLE "When I fall in love" PERFORMER "Marilyn Monroe" INDEX 01 03:31:58 TRACK 03 AUDIO TITLE "One silver dollar" PERFORMER "Marilyn Monroe" INDEX 01 06:30:63 TRACK 04 AUDIO TITLE "Happy birthda Mr. President" PERFORMER "Marilyn Monroe" INDEX 01 08:32:63 TRACK 05 AUDIO TITLE "Do it again" PERFORMER "Marilyn Monroe" INDEX 01 10:34:54 TRACK 06 AUDIO TITLE "Lazy" PERFORMER "Marilyn Monroe" INDEX 01 13:47:18 TRACK 07 AUDIO TITLE "My heart belong to daddy" PERFORMER "Marilyn Monroe" INDEX 01 17:21:34 TRACK 08 AUDIO TITLE "A man chases a girl" PERFORMER "Marilyn Monroe" INDEX 01 22:29:58 TRACK 09 AUDIO TITLE "Every baby needs a da-da-daddy" PERFORMER "Marilyn Monroe" INDEX 01 27:35:35 TRACK 10 AUDIO TITLE "Bye bye baby" PERFORMER "Marilyn Monroe" INDEX 01 30:29:67 TRACK 11 AUDIO TITLE "When love goes wrong" PERFORMER "Marilyn Monroe" INDEX 01 32:31:19 TRACK 12 AUDIO TITLE "I''m through with love" PERFORMER "Marilyn Monroe" INDEX 01 35:59:04 TRACK 13 AUDIO TITLE "A little girl from a little rock" PERFORMER "Marilyn Monroe" INDEX 01 38:30:13 TRACK 14 AUDIO TITLE "I found a dream" PERFORMER "Marilyn Monroe" INDEX 01 41:32:65 TRACK 15 AUDIO TITLE "Alexander''s ragtime band, There''s no business like show business" PERFORMER "Marilyn Monroe" INDEX 01 42:23:22 TRACK 16 AUDIO TITLE "Let''s make love" PERFORMER "Marilyn Monroe" INDEX 01 44:44:61 TRACK 17 AUDIO TITLE "You'' d be surprised" PERFORMER "Marilyn Monroe" INDEX 01 48:32:36
Треклист:
01. Runnin'' wild
02. Kiss
03. Anyone can see I love you
04. A fine romance
05. Some like it hot
06. Ladies of the chorus
07. Down in the meadow
08. I wanna be loved by you
09. Specialisation
10. I''m gonna file my claim
11. River of no return
12. Heat-wave
13. After you get what you want, you don''t want it
14. That old black magic
15. Incurably romantic
16. She acts like a woman should
Exact Audio Copy V1.0 beta 3 from 29. August 2011

EAC extraction logfile from 11. August 2012, 12:07

Marilyn Monroe / Runnin'' wild (cd 2)

Used drive : HL-DT-STDVDRAM GH10N Adapter: 1 ID: 1

Read mode : SecureUtilize accurate stream : YesDefeat audio cache : YesMake use of C2 pointers : No

Read offset correction : 667Overread into Lead-In and Lead-Out : NoFill up missing offset samples with silence : YesDelete leading and trailing silent blocks : NoNull samples used in CRC calculations : YesUsed interface : Native Win32 interface for Win NT & 2000

Used output format : User Defined EncoderSelected bitrate : 1024 kBit/sQuality : HighAdd ID3 tag : YesCommand line compressor : C:\Program Files\Exact Audio Copy New\Flac\flac.exeAdditional command line options : -V -5 -T "artist=%artist%" -T "title=%title%" -T "album=%albumtitle%" -T "tracknumber=%tracknr2%" -T "genre=%genre%" -5 %source%

TOC of the extracted CD

Track | Start | Length | Start sector | End sector --------------------------------------------------------- 1 | 0:00.00 | 1:06.48 | 0 | 4997 2 | 1:06.48 | 3:00.38 | 4998 | 18535 3 | 4:07.11 | 1:29.14 | 18536 | 25224 4 | 5:36.25 | 2:20.32 | 25225 | 35756 5 | 7:56.57 | 1:19.73 | 35757 | 41754 6 | 9:16.55 | 1:28.08 | 41755 | 48362 7 | 10:44.63 | 2:26.27 | 48363 | 59339 8 | 13:11.15 | 2:58.20 | 59340 | 72709 9 | 16:09.35 | 3:32.45 | 72710 | 88654 10 | 19:42.05 | 2:36.66 | 88655 | 100420 11 | 22:18.71 | 2:12.71 | 100421 | 110391 12 | 24:31.67 | 4:22.66 | 110392 | 130107 13 | 28:54.58 | 3:35.26 | 130108 | 146258 14 | 32:30.09 | 3:21.52 | 146259 | 161385 15 | 35:51.61 | 4:41.15 | 161386 | 182475 16 | 40:33.01 | 2:44.13 | 182476 | 194788

Range status and errors

Selected range

Filename S:\MUSIC\Marilyn Monroe - Sings (2CD)\MMS2\Marilyn Monroe - Runnin'' wild (cd 2).wav

Peak level 98.8 % Extraction speed 5.5 X Range quality 100.0 % Test CRC 702D3E43 Copy CRC 702D3E43 Copy OK

No errors occurred

AccurateRip summary

Track 1 not present in databaseTrack 2 not present in databaseTrack 3 not present in databaseTrack 4 not present in databaseTrack 5 not present in databaseTrack 6 not present in databaseTrack 7 not present in databaseTrack 8 not present in databaseTrack 9 not present in databaseTrack 10 not present in databaseTrack 11 not present in databaseTrack 12 not present in databaseTrack 13 not present in databaseTrack 14 not present in databaseTrack 15 not present in databaseTrack 16 not present in database

None of the tracks are present in the AccurateRip database

End of status report

---- CUETools DB Plugin V2.1.3

[CTDB TOCID: ZsSCyDVCn7x8uYBhmr8qxk.ejDY-] disk not present in database, Submit result: ZsSCyDVCn7x8uYBhmr8qxk.ejDY- has been uploaded

==== Log checksum 20A37D35024F5B868AAF930A4564ECA6BC133E016B5167FA95144B0A0C3120A6 ====
REM GENRE SoundtrackREM DISCID E60A2510REM COMMENT "ExactAudioCopy v1.0b3"PERFORMER "Marilyn Monroe"TITLE "Marilyn Monroe Sings! CD2"FILE "Marilyn Monroe - Marilyn Monroe Sings! CD2.flac" WAVE TRACK 01 AUDIO TITLE "Runnin'' wild" PERFORMER "Marilyn Monroe" INDEX 01 00:00:00 TRACK 02 AUDIO TITLE "Kiss" PERFORMER "Marilyn Monroe" INDEX 01 01:06:48 TRACK 03 AUDIO TITLE "Anyone can see I love you" PERFORMER "Marilyn Monroe" INDEX 01 04:07:11 TRACK 04 AUDIO TITLE "A fine romance" PERFORMER "Marilyn Monroe" INDEX 01 05:36:25 TRACK 05 AUDIO TITLE "Some like it hot" PERFORMER "Marilyn Monroe" INDEX 01 07:56:57 TRACK 06 AUDIO TITLE "Ladies of the chorus" PERFORMER "Marilyn Monroe" INDEX 01 09:16:55 TRACK 07 AUDIO TITLE "Down in the meadow" PERFORMER "Marilyn Monroe" INDEX 01 10:44:63 TRACK 08 AUDIO TITLE "I wanna be loved by you" PERFORMER "Marilyn Monroe" INDEX 01 13:11:15 TRACK 09 AUDIO TITLE "Specilisation" PERFORMER "Marilyn Monroe" INDEX 01 16:09:35 TRACK 10 AUDIO TITLE "I''m gonna file my claim" PERFORMER "Marilyn Monroe" INDEX 01 19:42:05 TRACK 11 AUDIO TITLE "River of no return" PERFORMER "Marilyn Monroe" INDEX 01 22:18:71 TRACK 12 AUDIO TITLE "Heat-wave" PERFORMER "Marilyn Monroe" INDEX 01 24:31:67 TRACK 13 AUDIO TITLE "After you get what you want, you don''t want it" PERFORMER "Marilyn Monroe" INDEX 01 28:54:58 TRACK 14 AUDIO TITLE "That old black magic" PERFORMER "Marilyn Monroe" INDEX 01 32:30:09 TRACK 15 AUDIO TITLE "Incurably romantic" PERFORMER "Marilyn Monroe" INDEX 01 35:51:61 TRACK 16 AUDIO TITLE "She acts like a woman should" PERFORMER "Marilyn Monroe" INDEX 01 40:33:01
Great collection with the 33 most know songs of Marilyn Monroe during her so brilliant and so short career, in their original version. From her first film "Ladies of the Chorus" (1948) till the song "Happy Birthday Mr. President" that Marilyn sang at JFK''s birthday gala in 19 May 1962, last year of her life. The songs are from Marilyn''s famous films. Let her drive you back to those unforgettable moments.


Трекер:  [ 18-Май-2013 07:21 ]

  

Скачать .torrent

Размер .torrent файла 19 KB


Размер: 468 MB
Хэш (hash) релиза: 7dce8ecf2e38a4d3afc6f3d84f9c0006ffcbffad

Еще никто не оставлял запись к записи скачать торрент Marilyn Monroe - Marilyn Monroe Sings! - 2012, FLAC . Будь первым!

!Обратная связь