Скачать через торрент Письмо для Момо Momo e no Tegami бесплатно Аниме Все серии на русском torrent

Если у вас наблюдаются проблемы со скриншотами, переходом по ссылками, скачиванием торрентов - проблемы в блокировщике рекламы AdBlock. #хорошегоДня!


Статистика раздачи
Размер:  6.37 GB   |    Зарегистрирован:  4 года 4 месяца   |    .torrent скачан:  41 раз   |   
Раздают:  1  
   
Загрузка...
 
Автор Сообщение

Polarnik

avatar Polarnik



Год выпуска: 2011
Страна:
Жанры: драма, мистика
Продолжительность: 02:00:18
Перевод:

русские субтитры от YakuSub Studio
(переводчик: Nika_Elrik, редактор: Harushechka, оформление: Dark Haku)
Озвучка:

Многоголосая, закадровая студия «Омикрон» Sample
Режиссер: Окиура Хироюки
Автор оригинала: Окиура Хироюки
Студия:
Описание: Юной Момо предстоит непростое испытание — переехать из Токио в городок на краю страны. Но к ожидаемым и объяснимым трудностям вдруг добавляются совсем странные и, можно сказать, сверхъестественные — в жизнь на тихом острове врываются события, которые и присниться не могли в оживленной столице. Попытка справиться с ними приведет девочку к открытиям, среди которых будет разгадка тайны письма, когда-то написанного отцом — письма всего лишь из двух слов: «Дорогая Момо».
Релиз от
Задействовано 6 актеров.
Русская дорожка получена наложением чистого голоса.
Перевод и озвучивание осуществлено в рамках сервиса "Озвучивание". Спонсоры: muha, Кириллка, Beonikol, Andy_Ko, zorro28, dt01, Illise, oldingt, tambov68, OttoRahn, vilych, w15, dotCom, snauts, gelom, iKogep, ntktuf, 8bitman, murza, zlodei24.
Качество: BDRip (Wiki)

Формат: MKV

Тип видео: Без хардсаба

Видео кодек: x264
Аудио кодек: DTS

Видео: x264, 4 180 Kbps, 1280x720, 23.976 fps, 8 bit

Аудио 1: - DTS, 1536 Kbps, 48KHz, 6ch
Аудио 2: - DTS, 1536 Kbps, 48KHz, 6ch [Многоголосая закадровая, студия «Омикрон»] (встроенная)
General
Unique ID : 197104123899077019389322532354662939128 (0x9448DF99A10E63F6913A0E6D821539F8)
Complete name : J:\Аниме\Полнометражные аниме\A.Letter.to.Momo.2011.720p.BluRay.Rus.Jpn.HDCLUB.mkv
Format : Matroska
Format version : Version 2
File size : 6.37 GiB
Duration : 2h 0mn
Overall bit rate : 7 562 Kbps
Movie name : A Letter to Momo (2011) - Release for HDCLUB
Encoded date : UTC 2013-05-16 11:34:11
Writing application : mkvmerge v3.2.0 (''''''''''''''''''''''''''''''''''''''''''''''''''''''''''''''''''''''''''''''''''''''''''''''''''''''''''''''''''''''''''''''''''''''''''''''''''''''''''''''''''''''''''''''''''''''''''''''''''''''''''''''''''''''''''''''''''''''''''''''''''''''''''''''''Beginnings'''''''''''''''''''''''''''''''''''''''''''''''''''''''''''''''''''''''''''''''''''''''''''''''''''''''''''''''''''''''''''''''''''''''''''''''''''''''''''''''''''''''''''''''''''''''''''''''''''''''''''''''''''''''''''''''''''''''''''''''''''''''''''''''') built on Feb 12 2010 16:46:17
Writing library : libebml v0.7.9 + libmatroska v0.8.1

Video
ID : 1
Format : AVC
Format/Info : Advanced Video Codec
Format profile : High@L4.1
Format settings, CABAC : Yes
Format settings, ReFrames : 8 frames
Codec ID : V_MPEG4/ISO/AVC
Duration : 2h 0mn
Bit rate : 4 540 Kbps
Width : 1 280 pixels
Height : 720 pixels
Display aspect ratio : 16:9
Frame rate mode : Constant
Frame rate : 23.976 fps
Color space : YUV
Chroma subsampling : 4:2:0
Bit depth : 8 bits
Scan type : Progressive
Bits/(Pixel*Frame) : 0.205
Stream size : 3.70 GiB (58%)
Writing library : x264 core 125 r2208 d9d2288
Encoding settings : cabac=1 / ref=8 / deblock=1:-1:-1 / analyse=0x3:0x113 / me=umh / subme=10 / psy=1 / psy_rd=1.00:0.10 / mixed_ref=1 / me_range=32 / chroma_me=1 / trellis=2 / 8x8dct=1 / cqm=0 / deadzone=21,11 / fast_pskip=0 / chroma_qp_offset=-5 / threads=12 / lookahead_threads=2 / sliced_threads=0 / nr=0 / decimate=0 / interlaced=0 / bluray_compat=0 / constrained_intra=0 / bframes=6 / b_pyramid=2 / b_adapt=2 / b_bias=0 / direct=3 / weightb=1 / open_gop=0 / weightp=2 / keyint=250 / keyint_min=23 / scenecut=40 / intra_refresh=0 / rc_lookahead=48 / rc=2pass / mbtree=1 / bitrate=4540 / ratetol=1.0 / qcomp=0.60 / qpmin=0 / qpmax=69 / qpstep=4 / cplxblur=20.0 / qblur=0.5 / ip_ratio=1.40 / aq=1:0.00
Language : English
Default : Yes
Forced : No

Audio #1
ID : 2
Format : DTS
Format/Info : Digital Theater Systems
Mode : 16
Format settings, Endianness : Big
Codec ID : A_DTS
Duration : 2h 0mn
Bit rate mode : Constant
Bit rate : 1 509 Kbps
Channel(s) : 6 channels
Channel positions : Front: L C R, Side: L R, LFE
Sampling rate : 48.0 KHz
Bit depth : 24 bits
Compression mode : Lossy
Stream size : 1.27 GiB (20%)
Language : Russian
Default : Yes
Forced : No

Audio #2
ID : 3
Format : DTS
Format/Info : Digital Theater Systems
Mode : 16
Format settings, Endianness : Big
Codec ID : A_DTS
Duration : 2h 0mn
Bit rate mode : Constant
Bit rate : 1 509 Kbps
Channel(s) : 6 channels
Channel positions : Front: L C R, Side: L R, LFE
Sampling rate : 48.0 KHz
Bit depth : 24 bits
Compression mode : Lossy
Stream size : 1.27 GiB (20%)
Language : Japanese
Default : No
Forced : No


Трекер:  [ 18-Май-2013 20:19 ]

  

Скачать .torrent

Размер .torrent файла 16 KB


Размер: 6.37 GB
Хэш (hash) релиза: fceca24abcda11c181cce243bb4402379188cca9
Подписка на обновления:

Торренты, похожие на Письмо для Момо Momo e no Tegami скачать торрент

Форум Название Автор Размер S L Добавлен
Аниме | HD Rips ·· Письмо для Момо / Momo e no Tegami / A Letter to Momo [Movie] [Без хардсаба] [RUS(int), JAP+SUB] [2011 г., повседневность, комедия, Blu-ray] [1080p] Galfimbul 4755718723644.29 GB 0 0 1472850141

00:02

3-Сен-16

Аниме | DVD ·· Письмо для Момо / Momo e no Tegami / A Letter to Momo [Movie] [RUS] [2011 г., повседневность, комедия] [DVD9] Galfimbul 83454709767.77 GB 0 0 1461275407

00:50

22-Апр-16

Аниме | Blu-Ray и BDRemux ·· Письмо для Момо / Momo e no Tegami / A Letter to Momo (Окиура Хироюки) [Movie] [без хардсаба] [RUS(ext), JAP+SUB] [2011 г., приключения, BDRemux] [1080p] Galfimbul 3339688942431.1 GB 0 0 1364030380

12:19

23-Мар-13

Аниме | HD Rips ·· Письмо для Момо / Momo e no Tegami / A Letter to Momo [Movie] [Без хардсаба] [RUS(int), JAP, SUB] [2011 г., приключения, драма, BDRip] [720p] Galfimbul 39786631853.71 GB 0 0 1360052760

11:26

5-Фев-13

Аниме | Rips ·· Письмо для Момо / Momo e no Tegami / A Letter to Momo [Movie] [Без хардсаба] [RUS(int), JAP+SUB] [2011 г., приключения, драма, BDRip] [HWP] Galfimbul 14865296161.38 GB 0 0 1357373880

11:18

5-Янв-13

Аниме | HD Rips ·· Письмо для Момо / Momo e no Tegami / A Letter to Momo [Movie] [Без хардсаба] [RUS(int), JAP] [2011 г., приключения, драма, BDRip] [720p] L 27155409502.53 GB 0 0 1357061280

20:28

1-Янв-13

Аниме | HD Rips ·· Письмо для Момо / Momo e no Tegami / A Letter to Momo (Окиура Хироюки) [Movie] [без хардсаба] [JAP+SUB] [2011 г., приключения, драма, BDRip] [1080p] Polarnik 1182946563811.02 GB 0 0 1356086280

13:38

21-Дек-12

Аниме | HD Rips ·· Письмо для Момо / Momo e no Tegami / A Letter to Momo (Окиура Хироюки) [Movie] [без хардсаба] [JAP+SUB] [2011 г., приключения, драма, BDRip] [720p] Polarnik 20641641641.92 GB 0 0 1354546140

17:49

3-Дек-12

Еще никто не оставлял запись к записи скачать торрент Письмо для Момо Momo e no Tegami . Будь первым!

!Обратная связь