Скачать порно через торрент Stringendo: Angel-tachi no Private Lesson Stringendo: My Blow Jober UnionPeer.org бесплатно онлайн HD качество

Скачать новое порно 2015, 2014 новинки через торрент UnionPeer.org

Порно торрент бесплатно ЮнионПир.орг

Если у вас наблюдаются проблемы со скриншотами, переходом по ссылками, скачиванием торрентов - проблемы в блокировщике рекламы AdBlock. #хорошегоДня!


Статистика раздачи
Размер:  45.73 GB   |    Зарегистрирован:  4 года 3 месяца   |    .torrent скачан:  162 раза   |   
Раздают:  1  
   
Загрузка...
 
Автор Сообщение

LinGr

avatar LinGr


ストリンジェンド ~エンジェルたちのプライベートレッスン~
Stringendo: Angel-tachi no Private Lesson
Stringendo: My Blow Jober
Стрингендо: Частные уроки ангелов
                             
Год выпуска: 2006
Страна: Япония
Жанр: anal, blowjob, female students, public, rape, school
Продолжительность: >12 эп. по 30 мин.
Субтитры: Отсутствуют
Цензура: Присутствует
Режиссёр: Araki Hideki
Студия: Pink Pineapple
Описание:
Tomohisa and Endo aren't either so handsome or ugly; they are just normal boy students. They're looking at Mizuho, the senior student, and Mikura, their classmate. Mizuho is a returnee student, and she attracts all the students by her beauty. Mizuho notices their eyes, and she gives Tomohisa a suggestive look.

One day, Tomohisa finds a note in his desk. It says, "I'm waiting in the ladies' room on the third floor". He goes there and finds Mizuho is waiting for him...

The next day, Tomohisa can't help recalling the event the day before. He happens to find that Endo is gone, and also Mikura, whom he loves secretly, is missing, too. He's afraid that they're doing things. However, exactly, they're doing things on the fire escape.

Информационные ссылки: AniDB || MAL || World Art || ХентайМаг
01. Volume 1
02. Volume 2
03. Volume 3
04. Volume 4
05. Volume 5
06. Volume 6
07. Volume 7
08. Volume 8
09. Volume 9
10. Volume 10
11. Volume 11
12. Volume 12
Specials:
01. Special 1
02. Special 2
03. Special 3
04. Special 4






Исходник: DVD-5
Видео: MPEG2 | NTSC | 16x9 | 720x480 | 8500 Kbps
Аудио JAP: AC-3 | 48000Hz | 192 Kbps | 2ch


 
     
   
General
Complete name : L:\VIDEO_TS\VTS_01_1.VOB
Format : MPEG-PS
File size : 1 024 MiB
Duration : 16mn 13s
Overall bit rate : 8 821 Kbps

Video
ID : 224 (0xE0)
Format : MPEG Video
Format version : Version 2
Format profile : Main@Main
Format settings, BVOP : Yes
Format settings, Matrix : Default
Duration : 16mn 13s
Bit rate : 8 500 Kbps
Width : 720 pixels
Height : 480 pixels
Display aspect ratio : 2.35:1
Frame rate : 29.970 fps
Standard : NTSC
Color space : YUV
Chroma subsampling : 4:2:0
Bit depth : 8 bits
Scan type : Interlaced
Scan order : Top Field First
Compression mode : Lossy
Bits/(Pixel*Frame) : 0.821
Stream size : 981 MiB (96%)
Color primaries : SMPTE 170M
Transfer characteristics : SMPTE 170M
Matrix coefficients : SMPTE 170M

Audio
ID : 189 (0xBD)-128 (0x80)
Format : AC-3
Format/Info : Audio Coding 3
Mode extension : CM (complete main)
Muxing mode : DVD-Video
Duration : 16mn 13s
Bit rate mode : Constant
Bit rate : 192 Kbps
Channel(s) : 2 channels
Channel positions : Front: L R
Sampling rate : 48.0 KHz
Bit depth : 16 bits
Compression mode : Lossy
Stream size : 22.3 MiB (2%)





Исходник: DVD-5
Видео: MPEG2 | NTSC | 16x9 | 720x480 | 9800 Kbps
Аудио JAP: AC-3 | 48000Hz | 192 Kbps | 2ch


 
       
General
Complete name : L:\VIDEO_TS\VTS_01_1.VOB
Format : MPEG-PS
File size : 1 024 MiB
Duration : 15mn 14s
Overall bit rate mode : Variable
Overall bit rate : 9 389 Kbps

Video
ID : 224 (0xE0)
Format : MPEG Video
Format version : Version 2
Format profile : Main@Main
Format settings, BVOP : Yes
Format settings, Matrix : Custom
Format settings, GOP : M=2, N=12
Duration : 15mn 14s
Bit rate mode : Variable
Bit rate : 9 010 Kbps
Maximum bit rate : 9 800 Kbps
Width : 720 pixels
Height : 480 pixels
Display aspect ratio : 16:9
Frame rate : 29.970 fps
Standard : NTSC
Color space : YUV
Chroma subsampling : 4:2:0
Bit depth : 8 bits
Scan type : Interlaced
Scan order : Top Field First
Compression mode : Lossy
Bits/(Pixel*Frame) : 0.870
Stream size : 982 MiB (96%)

Audio
ID : 189 (0xBD)-128 (0x80)
Format : AC-3
Format/Info : Audio Coding 3
Mode extension : CM (complete main)
Muxing mode : DVD-Video
Duration : 15mn 14s
Bit rate mode : Constant
Bit rate : 192 Kbps
Channel(s) : 2 channels
Channel positions : Front: L R
Sampling rate : 48.0 KHz
Bit depth : 16 bits
Compression mode : Lossy
Stream size : 20.9 MiB (2%)





Исходник: DVD-5
Видео: MPEG2 | NTSC | 16x9 | 720x480 | 9800 Kbps
Аудио JAP: AC-3 | 48000Hz | 192 Kbps | 2ch


 
 
General
Complete name : L:\VIDEO_TS\VTS_01_1.VOB
Format : MPEG-PS
File size : 1 024 MiB
Duration : 15mn 39s
Overall bit rate mode : Variable
Overall bit rate : 9 143 Kbps

Video
ID : 224 (0xE0)
Format : MPEG Video
Format version : Version 2
Format profile : Main@Main
Format settings, BVOP : Yes
Format settings, Matrix : Custom
Format settings, GOP : M=2, N=15
Duration : 15mn 39s
Bit rate mode : Variable
Bit rate : 8 769 Kbps
Maximum bit rate : 9 800 Kbps
Width : 720 pixels
Height : 480 pixels
Display aspect ratio : 16:9
Frame rate : 29.970 fps
Standard : NTSC
Color space : YUV
Chroma subsampling : 4:2:0
Bit depth : 8 bits
Scan type : Interlaced
Scan order : Top Field First
Compression mode : Lossy
Bits/(Pixel*Frame) : 0.847
Stream size : 982 MiB (96%)

Audio
ID : 189 (0xBD)-128 (0x80)
Format : AC-3
Format/Info : Audio Coding 3
Mode extension : CM (complete main)
Muxing mode : DVD-Video
Duration : 15mn 38s
Bit rate mode : Constant
Bit rate : 192 Kbps
Channel(s) : 2 channels
Channel positions : Front: L R
Sampling rate : 48.0 KHz
Bit depth : 16 bits
Compression mode : Lossy
Stream size : 21.5 MiB (2%)





Исходник: DVD-5
Видео: MPEG2 | NTSC | 16x9 | 720x480 | 9800 Kbps
Аудио JAP: AC-3 | 48000Hz | 192 Kbps | 2ch


 
 
General
Complete name : L:\VIDEO_TS\VTS_01_1.VOB
Format : MPEG-PS
File size : 1 024 MiB
Duration : 15mn 27s
Overall bit rate mode : Variable
Overall bit rate : 9 260 Kbps

Video
ID : 224 (0xE0)
Format : MPEG Video
Format version : Version 2
Format profile : Main@Main
Format settings, BVOP : Yes
Format settings, Matrix : Custom
Format settings, GOP : M=2, N=15
Duration : 15mn 27s
Bit rate mode : Variable
Bit rate : 8 884 Kbps
Maximum bit rate : 9 800 Kbps
Width : 720 pixels
Height : 480 pixels
Display aspect ratio : 16:9
Frame rate : 29.970 fps
Standard : NTSC
Color space : YUV
Chroma subsampling : 4:2:0
Bit depth : 8 bits
Scan type : Interlaced
Scan order : Top Field First
Compression mode : Lossy
Bits/(Pixel*Frame) : 0.858
Stream size : 982 MiB (96%)

Audio
ID : 189 (0xBD)-128 (0x80)
Format : AC-3
Format/Info : Audio Coding 3
Mode extension : CM (complete main)
Muxing mode : DVD-Video
Duration : 15mn 27s
Bit rate mode : Constant
Bit rate : 192 Kbps
Channel(s) : 2 channels
Channel positions : Front: L R
Sampling rate : 48.0 KHz
Bit depth : 16 bits
Compression mode : Lossy
Stream size : 21.2 MiB (2%)





Исходник: DVD-5
Видео: MPEG2 | NTSC | 16x9 | 720x480 | 9800 Kbps
Аудио JAP: AC-3 | 48000Hz | 192 Kbps | 2ch


 
 
General
Complete name : L:\VIDEO_TS\VTS_01_1.VOB
Format : MPEG-PS
File size : 1 024 MiB
Duration : 15mn 11s
Overall bit rate mode : Variable
Overall bit rate : 9 422 Kbps

Video
ID : 224 (0xE0)
Format : MPEG Video
Format version : Version 2
Format profile : Main@Main
Format settings, BVOP : Yes
Format settings, Matrix : Custom
Format settings, GOP : M=2, N=15
Duration : 15mn 11s
Bit rate mode : Variable
Bit rate : 9 043 Kbps
Maximum bit rate : 9 800 Kbps
Width : 720 pixels
Height : 480 pixels
Display aspect ratio : 16:9
Frame rate : 29.970 fps
Standard : NTSC
Color space : YUV
Chroma subsampling : 4:2:0
Bit depth : 8 bits
Scan type : Interlaced
Scan order : Top Field First
Compression mode : Lossy
Bits/(Pixel*Frame) : 0.873
Stream size : 982 MiB (96%)

Audio
ID : 189 (0xBD)-128 (0x80)
Format : AC-3
Format/Info : Audio Coding 3
Mode extension : CM (complete main)
Muxing mode : DVD-Video
Duration : 15mn 11s
Bit rate mode : Constant
Bit rate : 192 Kbps
Channel(s) : 2 channels
Channel positions : Front: L R
Sampling rate : 48.0 KHz
Bit depth : 16 bits
Compression mode : Lossy
Stream size : 20.9 MiB (2%)





Исходник: DVD-5
Видео: MPEG2 | NTSC | 16x9 | 720x480 | 9800 Kbps
Аудио JAP: AC-3 | 48000Hz | 192 Kbps | 2ch


 
 
General
Complete name : L:\VIDEO_TS\VTS_01_1.VOB
Format : MPEG-PS
File size : 1 024 MiB
Duration : 15mn 36s
Overall bit rate mode : Variable
Overall bit rate : 9 168 Kbps

Video
ID : 224 (0xE0)
Format : MPEG Video
Format version : Version 2
Format profile : Main@Main
Format settings, BVOP : Yes
Format settings, Matrix : Custom
Format settings, GOP : M=2, N=12
Duration : 15mn 36s
Bit rate mode : Variable
Bit rate : 8 794 Kbps
Maximum bit rate : 9 800 Kbps
Width : 720 pixels
Height : 480 pixels
Display aspect ratio : 16:9
Frame rate : 29.970 fps
Standard : NTSC
Color space : YUV
Chroma subsampling : 4:2:0
Bit depth : 8 bits
Scan type : Interlaced
Scan order : Top Field First
Compression mode : Lossy
Bits/(Pixel*Frame) : 0.849
Stream size : 982 MiB (96%)

Audio
ID : 189 (0xBD)-128 (0x80)
Format : AC-3
Format/Info : Audio Coding 3
Mode extension : CM (complete main)
Muxing mode : DVD-Video
Duration : 15mn 36s
Bit rate mode : Constant
Bit rate : 192 Kbps
Channel(s) : 2 channels
Channel positions : Front: L R
Sampling rate : 48.0 KHz
Bit depth : 16 bits
Compression mode : Lossy
Stream size : 21.4 MiB (2%)





Исходник: DVD-5
Видео: MPEG2 | NTSC | 16x9 | 720x480 | 9800 Kbps
Аудио JAP: AC-3 | 48000Hz | 192 Kbps | 2ch


 
 
General
Complete name : L:\VIDEO_TS\VTS_01_1.VOB
Format : MPEG-PS
File size : 1 024 MiB
Duration : 15mn 7s
Overall bit rate mode : Variable
Overall bit rate : 9 469 Kbps

Video
ID : 224 (0xE0)
Format : MPEG Video
Format version : Version 2
Format profile : Main@Main
Format settings, BVOP : Yes
Format settings, Matrix : Custom
Format settings, GOP : M=2, N=12
Duration : 15mn 7s
Bit rate mode : Variable
Bit rate : 9 089 Kbps
Maximum bit rate : 9 800 Kbps
Width : 720 pixels
Height : 480 pixels
Display aspect ratio : 16:9
Frame rate : 29.970 fps
Standard : NTSC
Color space : YUV
Chroma subsampling : 4:2:0
Bit depth : 8 bits
Scan type : Interlaced
Scan order : Top Field First
Compression mode : Lossy
Bits/(Pixel*Frame) : 0.877
Stream size : 983 MiB (96%)

Audio
ID : 189 (0xBD)-128 (0x80)
Format : AC-3
Format/Info : Audio Coding 3
Mode extension : CM (complete main)
Muxing mode : DVD-Video
Duration : 15mn 6s
Bit rate mode : Constant
Bit rate : 192 Kbps
Channel(s) : 2 channels
Channel positions : Front: L R
Sampling rate : 48.0 KHz
Bit depth : 16 bits
Compression mode : Lossy
Stream size : 20.8 MiB (2%)





Исходник: DVD-5
Видео: MPEG2 | NTSC | 16x9 | 720x480 | 9800 Kbps
Аудио JAP: AC-3 | 48000Hz | 192 Kbps | 2ch


 
 
General
Complete name : L:\VIDEO_TS\VTS_01_1.VOB
Format : MPEG-PS
File size : 1 024 MiB
Duration : 15mn 23s
Overall bit rate mode : Variable
Overall bit rate : 9 297 Kbps

Video
ID : 224 (0xE0)
Format : MPEG Video
Format version : Version 2
Format profile : Main@Main
Format settings, BVOP : Yes
Format settings, Matrix : Custom
Format settings, GOP : M=2, N=15
Duration : 15mn 23s
Bit rate mode : Variable
Bit rate : 8 920 Kbps
Maximum bit rate : 9 800 Kbps
Width : 720 pixels
Height : 480 pixels
Display aspect ratio : 16:9
Frame rate : 29.970 fps
Standard : NTSC
Color space : YUV
Chroma subsampling : 4:2:0
Bit depth : 8 bits
Scan type : Interlaced
Scan order : Top Field First
Compression mode : Lossy
Bits/(Pixel*Frame) : 0.861
Stream size : 982 MiB (96%)

Audio
ID : 189 (0xBD)-128 (0x80)
Format : AC-3
Format/Info : Audio Coding 3
Mode extension : CM (complete main)
Muxing mode : DVD-Video
Duration : 15mn 23s
Bit rate mode : Constant
Bit rate : 192 Kbps
Channel(s) : 2 channels
Channel positions : Front: L R
Sampling rate : 48.0 KHz
Bit depth : 16 bits
Compression mode : Lossy
Stream size : 21.1 MiB (2%)





Исходник: DVD-5
Видео: MPEG2 | NTSC | 16x9 | 720x480 | 9800 Kbps
Аудио JAP: AC-3 | 48000Hz | 192 Kbps | 2ch


 
 
General
Complete name : L:\VIDEO_TS\VTS_01_1.VOB
Format : MPEG-PS
File size : 1 024 MiB
Duration : 15mn 16s
Overall bit rate mode : Variable
Overall bit rate : 9 371 Kbps

Video
ID : 224 (0xE0)
Format : MPEG Video
Format version : Version 2
Format profile : Main@Main
Format settings, BVOP : Yes
Format settings, Matrix : Custom
Format settings, GOP : M=2, N=15
Duration : 15mn 16s
Bit rate mode : Variable
Bit rate : 8 992 Kbps
Maximum bit rate : 9 800 Kbps
Width : 720 pixels
Height : 480 pixels
Display aspect ratio : 16:9
Frame rate : 29.970 fps
Standard : NTSC
Color space : YUV
Chroma subsampling : 4:2:0
Bit depth : 8 bits
Scan type : Interlaced
Scan order : Top Field First
Compression mode : Lossy
Bits/(Pixel*Frame) : 0.868
Stream size : 982 MiB (96%)

Audio
ID : 189 (0xBD)-128 (0x80)
Format : AC-3
Format/Info : Audio Coding 3
Mode extension : CM (complete main)
Muxing mode : DVD-Video
Duration : 15mn 16s
Bit rate mode : Constant
Bit rate : 192 Kbps
Channel(s) : 2 channels
Channel positions : Front: L R
Sampling rate : 48.0 KHz
Bit depth : 16 bits
Compression mode : Lossy
Stream size : 21.0 MiB (2%)





Исходник: DVD-5
Видео: MPEG2 | NTSC | 16x9 | 720x480 | 9400 Kbps
Аудио JAP: AC-3 | 48000Hz | 192 Kbps | 2ch


 
 
General
Complete name : L:\VIDEO_TS\VTS_01_1.VOB
Format : MPEG-PS
File size : 1 024 MiB
Duration : 16mn 38s
Overall bit rate mode : Variable
Overall bit rate : 8 599 Kbps
Writing library : encoded by TMPGEnc 4.0 XPress Version. 4.7.9.311

Video
ID : 224 (0xE0)
Format : MPEG Video
Format version : Version 2
Format profile : Main@Main
Format settings, BVOP : Yes
Format settings, Matrix : Custom
Format settings, GOP : M=3, N=16
Duration : 16mn 38s
Bit rate mode : Variable
Bit rate : 8 236 Kbps
Maximum bit rate : 9 400 Kbps
Width : 720 pixels
Height : 480 pixels
Display aspect ratio : 16:9
Frame rate : 29.970 fps
Standard : NTSC
Color space : YUV
Chroma subsampling : 4:2:0
Bit depth : 8 bits
Scan type : Interlaced
Scan order : Top Field First
Compression mode : Lossy
Bits/(Pixel*Frame) : 0.795
Stream size : 981 MiB (96%)
Writing library : TMPGEnc XPress 4.7.9.311
Color primaries : SMPTE 170M
Transfer characteristics : SMPTE 170M
Matrix coefficients : SMPTE 170M

Audio
ID : 189 (0xBD)-128 (0x80)
Format : AC-3
Format/Info : Audio Coding 3
Mode extension : CM (complete main)
Muxing mode : DVD-Video
Duration : 16mn 38s
Bit rate mode : Constant
Bit rate : 192 Kbps
Channel(s) : 2 channels
Channel positions : Front: L R
Sampling rate : 48.0 KHz
Bit depth : 16 bits
Compression mode : Lossy
Stream size : 22.9 MiB (2%)





Исходник: DVD-5
Видео: MPEG2 | NTSC | 16x9 | 720x480 | 9400 Kbps
Аудио JAP: AC-3 | 48000Hz | 192 Kbps | 2ch


 
 
General
Complete name : L:\VIDEO_TS\VTS_01_1.VOB
Format : MPEG-PS
File size : 1 024 MiB
Duration : 17mn 21s
Overall bit rate mode : Variable
Overall bit rate : 8 248 Kbps
Writing library : encoded by TMPGEnc 4.0 XPress Version. 4.7.9.311

Video
ID : 224 (0xE0)
Format : MPEG Video
Format version : Version 2
Format profile : Main@Main
Format settings, BVOP : Yes
Format settings, Matrix : Custom
Format settings, GOP : M=3, N=16
Duration : 17mn 21s
Bit rate mode : Variable
Bit rate : 7 892 Kbps
Maximum bit rate : 9 400 Kbps
Width : 720 pixels
Height : 480 pixels
Display aspect ratio : 16:9
Frame rate : 29.970 fps
Standard : NTSC
Color space : YUV
Chroma subsampling : 4:2:0
Bit depth : 8 bits
Scan type : Interlaced
Scan order : Top Field First
Compression mode : Lossy
Bits/(Pixel*Frame) : 0.762
Stream size : 979 MiB (96%)
Writing library : TMPGEnc XPress 4.7.9.311
Color primaries : SMPTE 170M
Transfer characteristics : SMPTE 170M
Matrix coefficients : SMPTE 170M

Audio
ID : 189 (0xBD)-128 (0x80)
Format : AC-3
Format/Info : Audio Coding 3
Mode extension : CM (complete main)
Muxing mode : DVD-Video
Duration : 17mn 21s
Bit rate mode : Constant
Bit rate : 192 Kbps
Channel(s) : 2 channels
Channel positions : Front: L R
Sampling rate : 48.0 KHz
Bit depth : 16 bits
Compression mode : Lossy
Stream size : 23.8 MiB (2%)





Исходник: DVD-5
Видео: MPEG2 | NTSC | 16x9 | 720x480 | 9400 Kbps
Аудио JAP: AC-3 | 48000Hz | 192 Kbps | 2ch


 
 
General
Complete name : L:\VIDEO_TS\VTS_01_1.VOB
Format : MPEG-PS
File size : 1 023 MiB
Duration : 16mn 53s
Overall bit rate mode : Variable
Overall bit rate : 8 467 Kbps
Writing library : encoded by TMPGEnc Video Mastering Works 5 Version. 5.2.3.66

Video
ID : 224 (0xE0)
Format : MPEG Video
Format version : Version 2
Format profile : Main@Main
Format settings, BVOP : Yes
Format settings, Matrix : Custom
Duration : 16mn 53s
Bit rate mode : Variable
Bit rate : 8 106 Kbps
Maximum bit rate : 9 400 Kbps
Width : 720 pixels
Height : 480 pixels
Display aspect ratio : 16:9
Frame rate : 29.970 fps
Standard : NTSC
Color space : YUV
Chroma subsampling : 4:2:0
Bit depth : 8 bits
Scan type : Interlaced
Scan order : Top Field First
Compression mode : Lossy
Bits/(Pixel*Frame) : 0.783
Stream size : 980 MiB (96%)
Writing library : TMPGEnc Video Mastering Works 5 Version. 5.2.3.66
Color primaries : SMPTE 170M
Transfer characteristics : SMPTE 170M
Matrix coefficients : SMPTE 170M

Audio
ID : 189 (0xBD)-128 (0x80)
Format : AC-3
Format/Info : Audio Coding 3
Mode extension : CM (complete main)
Muxing mode : DVD-Video
Duration : 16mn 53s
Bit rate mode : Constant
Bit rate : 192 Kbps
Channel(s) : 2 channels
Channel positions : Front: L R
Sampling rate : 48.0 KHz
Bit depth : 16 bits
Compression mode : Lossy
Stream size : 23.2 MiB (2%)





Исходник: DVD-5
Видео: MPEG2 | NTSC | 16x9 | 720x480 | 9200 Kbps
Аудио JAP #1: AC-3 | 48000Hz | 192 Kbps | 2ch
Аудио JAP #2: AC-3 | 48000Hz | 192 Kbps | 2ch


   
 
General
Complete name : L:\VIDEO_TS\VTS_01_1.VOB
Format : MPEG-PS
File size : 1 024 MiB
Duration : 16mn 30s
Overall bit rate mode : Variable
Overall bit rate : 8 671 Kbps
Writing library : encoded by TMPGEnc Video Mastering Works 5 Version. 5.2.3.66

Video
ID : 224 (0xE0)
Format : MPEG Video
Format version : Version 2
Format profile : Main@Main
Format settings, BVOP : Yes
Format settings, Matrix : Custom
Format settings, GOP : M=3, N=16
Duration : 16mn 30s
Bit rate mode : Variable
Bit rate : 8 115 Kbps
Maximum bit rate : 9 200 Kbps
Width : 720 pixels
Height : 480 pixels
Display aspect ratio : 16:9
Frame rate : 29.970 fps
Standard : NTSC
Color space : YUV
Chroma subsampling : 4:2:0
Bit depth : 8 bits
Scan type : Interlaced
Scan order : Top Field First
Compression mode : Lossy
Bits/(Pixel*Frame) : 0.783
Stream size : 958 MiB (94%)
Writing library : TMPGEnc Video Mastering Works 5 Version. 5.2.3.66
Color primaries : SMPTE 170M
Transfer characteristics : SMPTE 170M
Matrix coefficients : SMPTE 170M

Audio #1
ID : 189 (0xBD)-128 (0x80)
Format : AC-3
Format/Info : Audio Coding 3
Mode extension : CM (complete main)
Muxing mode : DVD-Video
Duration : 16mn 30s
Bit rate mode : Constant
Bit rate : 192 Kbps
Channel(s) : 2 channels
Channel positions : Front: L R
Sampling rate : 48.0 KHz
Bit depth : 16 bits
Compression mode : Lossy
Stream size : 22.7 MiB (2%)

Audio #2
ID : 189 (0xBD)-129 (0x81)
Format : AC-3
Format/Info : Audio Coding 3
Mode extension : CM (complete main)
Muxing mode : DVD-Video
Duration : 16mn 30s
Bit rate mode : Constant
Bit rate : 192 Kbps
Channel(s) : 2 channels
Channel positions : Front: L R
Sampling rate : 48.0 KHz
Bit depth : 16 bits
Compression mode : Lossy
Stream size : 22.7 MiB (2%)





Исходник: DVD-5
Видео: MPEG2 | NTSC | 16x9 | 720x480 | 9400 Kbps
Аудио JAP #1: AC-3 | 48000Hz | 192 Kbps | 2ch
Аудио JAP #2: AC-3 | 48000Hz | 192 Kbps | 2ch


   
 
General
Complete name : L:\VIDEO_TS\VTS_01_1.VOB
Format : MPEG-PS
File size : 1 024 MiB
Duration : 16mn 23s
Overall bit rate mode : Variable
Overall bit rate : 8 734 Kbps
Writing library : encoded by TMPGEnc Video Mastering Works 5 Version. 5.2.4.68

Video
ID : 224 (0xE0)
Format : MPEG Video
Format version : Version 2
Format profile : Main@Main
Format settings, BVOP : Yes
Format settings, Matrix : Custom
Format settings, GOP : M=3, N=16
Duration : 16mn 23s
Bit rate mode : Variable
Bit rate : 8 177 Kbps
Maximum bit rate : 9 400 Kbps
Width : 720 pixels
Height : 480 pixels
Display aspect ratio : 16:9
Frame rate : 29.970 fps
Standard : NTSC
Color space : YUV
Chroma subsampling : 4:2:0
Bit depth : 8 bits
Scan type : Interlaced
Scan order : Top Field First
Compression mode : Lossy
Bits/(Pixel*Frame) : 0.789
Stream size : 958 MiB (94%)
Writing library : TMPGEnc Video Mastering Works 5 Version. 5.2.4.68
Color primaries : SMPTE 170M
Transfer characteristics : SMPTE 170M
Matrix coefficients : SMPTE 170M

Audio #1
ID : 189 (0xBD)-128 (0x80)
Format : AC-3
Format/Info : Audio Coding 3
Mode extension : CM (complete main)
Muxing mode : DVD-Video
Duration : 16mn 22s
Bit rate mode : Constant
Bit rate : 192 Kbps
Channel(s) : 2 channels
Channel positions : Front: L R
Sampling rate : 48.0 KHz
Bit depth : 16 bits
Compression mode : Lossy
Stream size : 22.5 MiB (2%)

Audio #2
ID : 189 (0xBD)-129 (0x81)
Format : AC-3
Format/Info : Audio Coding 3
Mode extension : CM (complete main)
Muxing mode : DVD-Video
Duration : 16mn 22s
Bit rate mode : Constant
Bit rate : 192 Kbps
Channel(s) : 2 channels
Channel positions : Front: L R
Sampling rate : 48.0 KHz
Bit depth : 16 bits
Compression mode : Lossy
Stream size : 22.5 MiB (2%)





Исходник: DVD-5
Видео: MPEG2 | NTSC | 16x9 | 720x480 | 9200 Kbps
Аудио JAP #1: AC-3 | 48000Hz | 192 Kbps | 2ch
Аудио JAP #2: AC-3 | 48000Hz | 192 Kbps | 2ch


   
 
General
Complete name : L:\VIDEO_TS\VTS_01_1.VOB
Format : MPEG-PS
File size : 1 024 MiB
Duration : 16mn 13s
Overall bit rate mode : Variable
Overall bit rate : 8 819 Kbps
Writing library : encoded by TMPGEnc Video Mastering Works 5 Version. 5.3.0.82

Video
ID : 224 (0xE0)
Format : MPEG Video
Format version : Version 2
Format profile : Main@Main
Format settings, BVOP : Yes
Format settings, Matrix : Custom
Format settings, GOP : M=3, N=16
Duration : 16mn 13s
Bit rate mode : Variable
Bit rate : 8 259 Kbps
Maximum bit rate : 9 200 Kbps
Width : 720 pixels
Height : 480 pixels
Display aspect ratio : 16:9
Frame rate : 29.970 fps
Standard : NTSC
Color space : YUV
Chroma subsampling : 4:2:0
Bit depth : 8 bits
Scan type : Interlaced
Scan order : Top Field First
Compression mode : Lossy
Bits/(Pixel*Frame) : 0.797
Stream size : 959 MiB (94%)
Writing library : TMPGEnc Video Mastering Works 5 Version. 5.3.0.82
Color primaries : SMPTE 170M
Transfer characteristics : SMPTE 170M
Matrix coefficients : SMPTE 170M

Audio #1
ID : 189 (0xBD)-128 (0x80)
Format : AC-3
Format/Info : Audio Coding 3
Mode extension : CM (complete main)
Muxing mode : DVD-Video
Duration : 16mn 13s
Bit rate mode : Constant
Bit rate : 192 Kbps
Channel(s) : 2 channels
Channel positions : Front: L R
Sampling rate : 48.0 KHz
Bit depth : 16 bits
Compression mode : Lossy
Stream size : 22.3 MiB (2%)

Audio #2
ID : 189 (0xBD)-129 (0x81)
Format : AC-3
Format/Info : Audio Coding 3
Mode extension : CM (complete main)
Muxing mode : DVD-Video
Duration : 16mn 13s
Bit rate mode : Constant
Bit rate : 192 Kbps
Channel(s) : 2 channels
Channel positions : Front: L R
Sampling rate : 48.0 KHz
Bit depth : 16 bits
Compression mode : Lossy
Stream size : 22.3 MiB (2%)





Исходник: DVD-5
Видео: MPEG2 | NTSC | 16x9 | 720x480 | 9800 Kbps
Аудио JAP #1: AC-3 | 48000Hz | 192 Kbps | 2ch
Аудио JAP #2: AC-3 | 48000Hz | 192 Kbps | 2ch


   
 
General
Complete name : L:\VIDEO_TS\VTS_01_1.VOB
Format : MPEG-PS
File size : 1 023 MiB
Duration : 15mn 3s
Overall bit rate mode : Variable
Overall bit rate : 9 499 Kbps

Video
ID : 224 (0xE0)
Format : MPEG Video
Format version : Version 2
Format profile : Main@Main
Format settings, BVOP : Yes
Format settings, Matrix : Custom
Duration : 15mn 3s
Bit rate mode : Variable
Bit rate : 8 926 Kbps
Maximum bit rate : 9 800 Kbps
Width : 720 pixels
Height : 480 pixels
Display aspect ratio : 16:9
Frame rate : 29.970 fps
Standard : NTSC
Color space : YUV
Chroma subsampling : 4:2:0
Bit depth : 8 bits
Scan type : Interlaced
Scan order : Top Field First
Compression mode : Lossy
Bits/(Pixel*Frame) : 0.862
Stream size : 961 MiB (94%)

Audio #1
ID : 189 (0xBD)-128 (0x80)
Format : AC-3
Format/Info : Audio Coding 3
Mode extension : CM (complete main)
Muxing mode : DVD-Video
Duration : 15mn 3s
Bit rate mode : Constant
Bit rate : 192 Kbps
Channel(s) : 2 channels
Channel positions : Front: L R
Sampling rate : 48.0 KHz
Bit depth : 16 bits
Compression mode : Lossy
Stream size : 20.7 MiB (2%)

Audio #2
ID : 189 (0xBD)-129 (0x81)
Format : AC-3
Format/Info : Audio Coding 3
Mode extension : CM (complete main)
Muxing mode : DVD-Video
Duration : 15mn 3s
Bit rate mode : Constant
Bit rate : 192 Kbps
Channel(s) : 2 channels
Channel positions : Front: L R
Sampling rate : 48.0 KHz
Bit depth : 16 bits
Compression mode : Lossy
Stream size : 20.7 MiB (2%)




       


Трекер:  [ 17-Май-2013 21:07 ]

  

Скачать .torrent

Размер .torrent файла 230 KB


Размер: 45.73 GB
Хэш (hash) релиза: 051d4e5aa1823b19d9d85036d12c8caff4a67d26

Торренты, похожие на Stringendo: Angel-tachi no Private Lesson Stringendo: My Blow Jober скачать торрент

Форум Название Автор Размер S L Добавлен
Хентай, порно и эротические мультфильмы ·· Stringendo: My Blow Jober/Stringendo: Angel-tachi no Private Lesson/Стрингендо: Частные уроки ангелов/(special)/(Araki Hideki, Pink Pineapple)(ep.1-12of12)[cen][2006-2012 г. blowjob,anal,public,rape,school,female students,DVDRip] [jap/eng/pol/rus] Galfimbul 40052952383.73 GB 0 0 1351668180

10:23

31-Окт-12

bot

Топик был перенесен в форум Хентай | С цензурой

Перенес Mahmud_1

Хотите добавить комментарий к записи скачать торрент Stringendo: Angel-tachi no Private Lesson Stringendo: My Blow Jober

!Обратная связь