Скачать порно через торрент Ane Koi Люблю сестру UnionPeer.org бесплатно онлайн HD качество

Скачать новое порно 2015, 2014 новинки через торрент UnionPeer.org

Порно торрент бесплатно ЮнионПир.орг

Если у вас наблюдаются проблемы со скриншотами, переходом по ссылками, скачиванием торрентов - проблемы в блокировщике рекламы AdBlock. #хорошегоДня!


Статистика раздачи
Размер:  1.62 GB   |    Зарегистрирован:  4 года 3 месяца   |    .torrent скачан:  104 раза   |   
Раздают:  1  
   
Загрузка...
 
Автор Сообщение

LinGr

avatar LinGr


姉恋
Ane Koi
Люблю сестру
Год выпуска: 2013
Страна: Япония
Жанр: big tits, blowjob, incest, straight, virgin
Продолжительность: >1 эп. 25 мин.
Субтитры: Отсутствуют
Цензура: Присутствует
Студия: Pashmina
Описание:
Akimasa is now a high-school student lives alone with his older sister who he obviously has feelings for Mao-neechan. Aki's sister, for her part was pretty popular and well loved and responsible in school and is now a successful office lady... on the surface... but in reality she is much more troubled over Aki than what he will ever be over her... Can something possible develop between the two of them?

Meanwhile Aki's Otaku childhood friend Rio and Aki's delinquent childhood friend Asami suddenly realise that they want to be much closer to Aki to what they are now
.
Информационные ссылки: AniDB || MAL || World Art || ХентайМаг
Исходник: DVD-5
Видео: MPEG2 | NTSC | 16x9 | 720x480 | 8000 Kbps
Аудио JAP: AC-3 | 48000Hz | 128 Kbps | 2ch


       
General
Complete name : L:\VIDEO_TS\VTS_01_1.VOB
Format : MPEG-PS
File size : 1 024 MiB
Duration : 22mn 9s
Overall bit rate mode : Variable
Overall bit rate : 6 456 Kbps
Writing library : encoded by TMPGEnc Video Mastering Works 5 Version. 5.3.1.85

Video
ID : 224 (0xE0)
Format : MPEG Video
Format version : Version 2
Format profile : Main@Main
Format settings, BVOP : Yes
Format settings, Matrix : Custom
Duration : 22mn 9s
Bit rate mode : Variable
Bit rate : 6 199 Kbps
Maximum bit rate : 8 000 Kbps
Width : 720 pixels
Height : 480 pixels
Display aspect ratio : 16:9
Frame rate : 29.970 fps
Standard : NTSC
Color space : YUV
Chroma subsampling : 4:2:0
Bit depth : 8 bits
Scan type : Interlaced
Scan order : Top Field First
Compression mode : Lossy
Bits/(Pixel*Frame) : 0.599
Stream size : 983 MiB (96%)
Writing library : TMPGEnc Video Mastering Works 5 Version. 5.3.1.85
Color primaries : SMPTE 170M
Transfer characteristics : SMPTE 170M
Matrix coefficients : SMPTE 170M

Audio
ID : 189 (0xBD)-128 (0x80)
Format : AC-3
Format/Info : Audio Coding 3
Mode extension : CM (complete main)
Muxing mode : DVD-Video
Duration : 22mn 9s
Bit rate mode : Constant
Bit rate : 128 Kbps
Channel(s) : 2 channels
Channel positions : Front: L R
Sampling rate : 48.0 KHz
Bit depth : 16 bits
Compression mode : Lossy
Stream size : 20.3 MiB (2%)


Трекер:  [ 17-Май-2013 19:33 ]

  

Скачать .torrent

Размер .torrent файла 16 KB


Размер: 1.62 GB
Хэш (hash) релиза: 488480856434766958e8b332d6143b1855ebc2cc

bot

Топик был перенесен в форум Хентай | С цензурой

Перенес Mahmud_1

Хотите добавить комментарий к записи скачать торрент Ane Koi Люблю сестру

!Обратная связь