Скачать порно через торрент Sei Yariman Gakuen Enkou Nikki The Animation Saint Slut Academy Dating Diary UnionPeer.org бесплатно онлайн HD качество

Скачать новое порно 2015, 2014 новинки через торрент UnionPeer.org

Порно торрент бесплатно ЮнионПир.орг

Если у вас наблюдаются проблемы со скриншотами, переходом по ссылками, скачиванием торрентов - проблемы в блокировщике рекламы AdBlock. #хорошегоДня!


Статистика раздачи
Размер:  2.9 GB   |    Зарегистрирован:  4 года 5 месяцев   |    .torrent скачан:  4928 раз   |   
Раздают:  1  
   
Загрузка...
 
Автор Сообщение

LinGr

avatar LinGr


聖ヤリマン学園援交日記 THE ANIMATION
Sei Yariman Gakuen Enkou Nikki The Animation
Saint Slut Academy Dating Diary
Школьный дневник
Год выпуска: 2013
Страна: Япония
Жанр: ahegao, anal, big tits, blowjob, dark skin, mature, oral sex, straight, x-ray
Продолжительность: >1 эп. 30 мин.
Субтитры: Отсутствуют
Цензура: Присутствует
Режиссёр: Nishikawa Takashi
Студия: Pink Pineapple
Описание:
A successful businessman finds himself in the middle of a life crisis. His wife and daughter left him making him question the purpose of his hard work. A young woman suddenly approaches him one night and offers him sex for money. He discovers the joy of sex after being celibate for many years and realizes that age is not a hindrance to start a youthful adventure.
Информационные ссылки: AniDB || MAL || World Art || ХентайМаг
Исходник: DVD-5
Видео: MPEG2 | NTSC | 16x9 | 720x480 | 9400 Kbps
Аудио JAP: AC-3 | 48000Hz | 192 Kbps | 2ch


       
General
Complete name : L:\VIDEO_TS\VTS_01_1.VOB
Format : MPEG-PS
File size : 1 023 MiB
Duration : 20mn 4s
Overall bit rate mode : Variable
Overall bit rate : 7 128 Kbps
Writing library : encoded by TMPGEnc Video Mastering Works 5 Version. 5.3.0.82

Video
ID : 224 (0xE0)
Format : MPEG Video
Format version : Version 2
Format profile : Main@Main
Format settings, BVOP : Yes
Format settings, Matrix : Custom
Duration : 20mn 4s
Bit rate mode : Variable
Bit rate : 6 794 Kbps
Maximum bit rate : 9 400 Kbps
Width : 720 pixels
Height : 480 pixels
Display aspect ratio : 16:9
Frame rate : 29.970 fps
Standard : NTSC
Color space : YUV
Chroma subsampling : 4:2:0
Bit depth : 8 bits
Scan type : Interlaced
Scan order : Top Field First
Compression mode : Lossy
Bits/(Pixel*Frame) : 0.656
Stream size : 975 MiB (95%)
Writing library : TMPGEnc Video Mastering Works 5 Version. 5.3.0.82
Color primaries : SMPTE 170M
Transfer characteristics : SMPTE 170M
Matrix coefficients : SMPTE 170M

Audio
ID : 189 (0xBD)-128 (0x80)
Format : AC-3
Format/Info : Audio Coding 3
Mode extension : CM (complete main)
Muxing mode : DVD-Video
Duration : 20mn 4s
Bit rate mode : Constant
Bit rate : 192 Kbps
Channel(s) : 2 channels
Channel positions : Front: L R
Sampling rate : 48.0 KHz
Bit depth : 16 bits
Compression mode : Lossy
Stream size : 27.6 MiB (3%)


Трекер:  [ 17-Май-2013 19:25 ]

  

Скачать .torrent

Размер .torrent файла 15 KB


Размер: 2.9 GB
Хэш (hash) релиза: 5266f0a029ce0378917e97d48e3978007031148e

bot

Топик был перенесен в форум Хентай | С цензурой

Перенес Mahmud_1

Хотите добавить комментарий к записи скачать торрент Sei Yariman Gakuen Enkou Nikki The Animation Saint Slut Academy Dating Diary

!Обратная связь