Скачать порно через торрент Soushisouai Note The Animation Заметки о взаимной любви UnionPeer.org бесплатно онлайн HD качество

Скачать новое порно 2015, 2014 новинки через торрент UnionPeer.org

Порно торрент бесплатно ЮнионПир.орг

Если у вас наблюдаются проблемы со скриншотами, переходом по ссылками, скачиванием торрентов - проблемы в блокировщике рекламы AdBlock. #хорошегоДня!


Статистика раздачи
Размер:  2.63 GB   |    Зарегистрирован:  4 года 2 месяца   |    .torrent скачан:  83 раза   |   
Раздают:  1  
   
Загрузка...
 
Автор Сообщение

LinGr

avatar LinGr


相思相愛ノート THE ANIMATION
Soushisouai Note The Animation
Заметки о взаимной любви
Год выпуска: 2013
Страна: Япония
Жанр: big tits, oral sex, straight, x-ray
Продолжительность: >1 эп. 30 мин.
Субтитры: Отсутствуют
Цензура: Присутствует
Режиссёр: Raika Ken
Студия: Pink Pineapple
Описание:
Based on the erotic manga.
Информационные ссылки: AniDB || MAL || World Art || ХентайМаг
Исходник: DVD-5
Видео: MPEG2 | NTSC | 16x9 | 720x480 | 9400 Kbps
Аудио JAP: AC-3 | 48000Hz | 192 Kbps | 2ch
       
General
Complete name : L:\VIDEO_TS\VTS_01_1.VOB
Format : MPEG-PS
File size : 1 024 MiB
Duration : 20mn 47s
Overall bit rate mode : Variable
Overall bit rate : 6 884 Kbps
Writing library : encoded by TMPGEnc Video Mastering Works 5 Version. 5.3.0.82

Video
ID : 224 (0xE0)
Format : MPEG Video
Format version : Version 2
Format profile : Main@Main
Format settings, BVOP : Yes
Format settings, Matrix : Custom
Format settings, GOP : M=3, N=16
Duration : 20mn 47s
Bit rate mode : Variable
Bit rate : 6 555 Kbps
Maximum bit rate : 9 400 Kbps
Width : 720 pixels
Height : 480 pixels
Display aspect ratio : 16:9
Frame rate : 29.970 fps
Standard : NTSC
Color space : YUV
Chroma subsampling : 4:2:0
Bit depth : 8 bits
Scan type : Interlaced
Scan order : Top Field First
Compression mode : Lossy
Bits/(Pixel*Frame) : 0.633
Stream size : 975 MiB (95%)
Writing library : TMPGEnc Video Mastering Works 5 Version. 5.3.0.82
Color primaries : SMPTE 170M
Transfer characteristics : SMPTE 170M
Matrix coefficients : SMPTE 170M

Audio
ID : 189 (0xBD)-128 (0x80)
Format : AC-3
Format/Info : Audio Coding 3
Mode extension : CM (complete main)
Muxing mode : DVD-Video
Duration : 20mn 47s
Bit rate mode : Constant
Bit rate : 192 Kbps
Channel(s) : 2 channels
Channel positions : Front: L R
Sampling rate : 48.0 KHz
Bit depth : 16 bits
Compression mode : Lossy
Stream size : 28.6 MiB (3%)


Трекер:  [ 17-Май-2013 19:20 ]

  

Скачать .torrent

Размер .torrent файла 13 KB


Размер: 2.63 GB
Хэш (hash) релиза: 52299e14c98fcd4b689c3bec1981a270a52dc853

Торренты, похожие на Soushisouai Note The Animation Заметки о взаимной любви скачать торрент

Форум Название Автор Размер S L Добавлен
Хентай | С цензурой ·· Soushisouai Note The Animation / Заметки о взаимной любви (Raika Ken, Pink Pineapple) (ep.1) [cen] [2013 г., Big tits, Straight, X-Ray,Oral sex, DVDRip] [jap/eng] Galfimbul 202138563193 MB 0 0 1365627067

23:51

10-Апр-13

Хентай | С цензурой ·· Soushisouai Note The Animation / Заметки о взаимной любви (Raika Ken, Pink Pineapple) (ep.1) [cen] [2013 г., Big tits, Straight, X-Ray,Oral sex, DVDRip] [jap] Galfimbul 202108032193 MB 0 0 1362293014

09:43

3-Мар-13

bot

Топик был перенесен в форум Хентай | С цензурой

Перенес Mahmud_1

Хотите добавить комментарий к записи скачать торрент Soushisouai Note The Animation Заметки о взаимной любви

!Обратная связь