Скачать порно через торрент Puella Magi Homu Muzan Puella Магов Homu Muzan UnionPeer.org бесплатно онлайн HD качество

Скачать новое порно 2015, 2014 новинки через торрент UnionPeer.org

Порно торрент бесплатно ЮнионПир.орг

Если у вас наблюдаются проблемы со скриншотами, переходом по ссылками, скачиванием торрентов - проблемы в блокировщике рекламы AdBlock. #хорошегоДня!


Статистика раздачи
Размер:  556 MB   |    Зарегистрирован:  4 года 3 месяца   |    .torrent скачан:  348 раз   |   
Раздают:  1  
   
Загрузка...
 
Автор Сообщение

Galfimbul

avatar Galfimbul



Puella Magi Homu Muzan / 魔法少女 暁○ほむっロ無慘 / Puella Магов Homu Muzan

Год производства: 2013 г.
Reslese 10.05.2013
Жанр: Foreign Object Rape Anal
Серии: 1
Продолжительность: 28:54
Цензура: Есть во всех файлах

Язык: Японский
Озвучка: Оригинальная
Субтитры: Встроенные неотключаемые (хардсаб)

Студия: Red Dragonfly


DLLSite

Описание:

Since the day Homura discovered Q_B's motive she's been planning to eliminate him.
However, her covert spying is known, and it plays right into Q_B's own devious scheme.
He appears at the precise moment of emergency. Homura is tricked......
Качество видео: GameRip
Формат видео: WMV
Видео кодек: Windows Media
Аудио кодек: WMA
Видео: Windows Media Video 9 800x600 29fps 2500kbps [Raw Video 1]
Аудио 1: WMA 2 44100Hz stereo 192kbps [Raw Audio 0]
Format : Windows Media
File size : 556 MiB
Duration : 28mn 54s
Overall bit rate mode : Constant
Overall bit rate : 2 687 Kbps
Maximum Overall bit rate : 2 716 Kbps
Encoded date : UTC 2013-05-19 20:23:10.960
WM/EncodingSettings : Lavf52.61.0

Video
ID : 2
Format : VC-1
Format profile : MP@HL
Codec ID : WMV3
Codec ID/Info : Windows Media Video 9
Codec ID/Hint : WMV3
Description of the codec : Windows Media Video 9 - Professional
Duration : 28mn 54s
Bit rate mode : Constant
Bit rate : 2 500 Kbps
Width : 800 pixels
Height : 600 pixels
Display aspect ratio : 4:3
Frame rate : 29.000 fps
Bit depth : 8 bits
Scan type : Progressive
Compression mode : Lossy
Bits/(Pixel*Frame) : 0.180
Stream size : 517 MiB (93%)
Language : Japanese

Audio
ID : 1
Format : WMA
Format version : Version 2
Codec ID : 161
Codec ID/Info : Windows Media Audio
Description of the codec : Windows Media Audio 9.2 - 192 kbps, 44 kHz, stereo (A/V) 1-pass CBR
Duration : 28mn 54s
Bit rate mode : Constant
Bit rate : 192 Kbps
Channel(s) : 2 channels
Sampling rate : 44.1 KHz
Bit depth : 16 bits
Stream size : 39.7 MiB (7%)
Приятного просмотра! Пожалуйста, поддержите раздачу!
Спасибо за Ваши будующие комментарии!

Трекер:  [ 17-Май-2013 11:21 ]

  

Скачать .torrent

Размер .torrent файла 11 KB


Размер: 556 MB
Хэш (hash) релиза: 9847bbb70f91ea52e48dfc6f03702840ccc9eb3a

bot

Топик был перенесен в форум Хентай | С цензурой

Перенес Galfimbul

Хотите добавить комментарий к записи скачать торрент Puella Magi Homu Muzan Puella Магов Homu Muzan

!Обратная связь