Скачать через торрент Драконий жемчуг Абсалон бесплатно Аниме Все серии на русском torrent

Если у вас наблюдаются проблемы со скриншотами, переходом по ссылками, скачиванием торрентов - проблемы в блокировщике рекламы AdBlock. #хорошегоДня!


Статистика раздачи
Размер:  738 MB   |    Зарегистрирован:  4 года 3 месяца   |    .torrent скачан:  28 раз   |   
Раздают:  1  
   
Загрузка...
 
Автор Сообщение

Polarnik

avatar Polarnik


Драконий жемчуг Абсалон [1 из 3] 1080p. / Dragon Ball Absalon

Страна: Япония/США
Год выпуска: 2012 г.
Жанр: приключения, боевые искусства, сёнэн
Тип: TV
Продолжительность: 14 мин. серия
Режиссер: Melvin Dompig
Студия: Max Gene Animation Studio

Описание: Действия происходят 12 лет спустя после финала Dragon Ball GT.Бойцы Зет решили продолжать тренироваться ибо понимали что даже без Гоку их ждет еще больше неприятностей в будущем. Веджита для себя решил даже больше : он покинул планету в поисках новых испытаний и еще большей силы.

Доп. информация: Дело рук фаната. Идея не плохая.Анимация забирает много времени поэтому график выхода серий неизвестный. Ожидалось что каждая из серий будет выходить раз в месяц , однако как и с выходом первой серии тут ждать нужно овер 6 месяцев пока созреет загрузить отдельный эпизод. Так же в начале была информация что будет всего 3 серии и уж так получилось что очень много людей подержали создателя этого Абсалона и он решил сделать больше чем 3 запланированных эпизода.

Качество: WEB-DL
Тип релиза: Без хардсаба
Формат видео: MP4
Релиз/Автор рипа: neoo
Совместимость с бытовыми плеерами: Нет
Видео: AVC, 1792x1008 ,30.00 fps , 6,932 kbps
Аудио: AAC,150 kbps,Stereo,44,100 Hz Язык Русский (в составе контейнера) ; Озвучка: neoo (Infernom Studious)
Субтитры: нет
Format : MPEG-4Format profile : Base MediaCodec ID : isomFile size : 738 MiBDuration : 14mn 34sOverall bit rate mode : VariableOverall bit rate : 7 083 KbpsWriting application : Lavf52.93.0

VideoID : 1Format : AVCFormat/Info : Advanced Video CodecFormat profile : High@L4.0Format settings, CABAC : YesFormat settings, ReFrames : 3 framesCodec ID : avc1Codec ID/Info : Advanced Video CodingDuration : 14mn 34sBit rate : 6 927 KbpsNominal bit rate : 8 000 KbpsWidth : 1 792 pixelsHeight : 1 008 pixelsDisplay aspect ratio : 16:9Frame rate mode : ConstantFrame rate : 30.000 fpsColor space : YUVChroma subsampling : 4:2:0Bit depth : 8 bitsScan type : ProgressiveBits/(Pixel*Frame) : 0.128Stream size : 722 MiB (98%)Writing library : x264 core 112Encoding settings : cabac=1 / ref=3 / deblock=1:0:0 / analyse=0x3:0x113 / me=hex / subme=7 / psy=1 / psy_rd=1.00:0.00 / mixed_ref=1 / me_range=16 / chroma_me=1 / trellis=1 / 8x8dct=1 / cqm=0 / deadzone=21,11 / fast_pskip=1 / chroma_qp_offset=-2 / threads=1 / sliced_threads=0 / nr=0 / decimate=1 / interlaced=0 / constrained_intra=0 / bframes=3 / b_pyramid=0 / b_adapt=1 / b_bias=0 / direct=1 / weightb=1 / open_gop=0 / weightp=2 / keyint=250 / keyint_min=25 / scenecut=40 / intra_refresh=0 / rc_lookahead=40 / rc=abr / mbtree=1 / bitrate=8000 / ratetol=1.0 / qcomp=0.60 / qpmin=10 / qpmax=51 / qpstep=4 / ip_ratio=1.41 / aq=1:1.00Language : English

AudioID : 2Format : AACFormat/Info : Advanced Audio CodecFormat profile : LCCodec ID : 40Duration : 14mn 34sBit rate mode : VariableBit rate : 151 KbpsChannel(s) : 2 channelsChannel positions : Front: L RSampling rate : 44.1 KHzCompression mode : LossyDelay relative to video : 33msStream size : 15.7 MiB (2%)Language : English
1.Нету выхода.


Трекер:  [ 23-Май-2013 20:10 ]

  

Скачать .torrent

Размер .torrent файла 15 KB


Размер: 738 MB
Хэш (hash) релиза: d4a9f8836f0721ceacac90855ac972eb569e171d
Подписка на обновления:

Еще никто не оставлял запись к записи скачать торрент Драконий жемчуг Абсалон . Будь первым!

!Обратная связь