Скачать через торрент музыку Любовь с уведомлением Two Weeks Notice бесплатно без регистрации torrent

Если у вас наблюдаются проблемы со скриншотами, переходом по ссылками, скачиванием торрентов - проблемы в блокировщике рекламы AdBlock. #хорошегоДня!


Статистика раздачи
Размер:  190 MB   |    Зарегистрирован:  4 года 4 месяца   |    .torrent скачан:  22 раза   |   
Раздают:  1  
   
Загрузка...
 
Автор Сообщение

Galfimbul

avatar Galfimbul


Любовь с уведомлением | Two Weeks Notice

Жанр: Score
Композитор: John Powell
Год выпуска: 2002
Страна-производитель диска: Germany
Издатель (лейбл): Varese Sarabande / Colosseum
Номер по каталогу: VSD 6434
Аудио кодек: FLAC (*.flac)
Тип рипа: tracks+.cue
Битрейт аудио: lossless
Продолжительность: 00:30:20
Источник: Собственный рип
Наличие сканов в содержимом раздачи: да

Треклист:
1. Love Theme (01:38)
2. Divorce (01:24)
3. Take Away (02:40)
4. Trying to Get Fired (01:31)
5. Helicopter Ride (02:30)
6. In the Limo (00:51)
7. Bobcat Pretzel (03:15)
8. Protest (01:26)
9. Interviews (00:44)
10. Emergency (01:40)
11. Absolutely Beautiful (02:41)
12. Sad Bowels (02:51)
13. George''s Speech (02:44)
14. Finale (03:42)
15. Epilogue (00:43) .
Exact Audio Copy V1.0 beta 3 from 29. August 2011

EAC extraction logfile from 15. April 2013, 12:01

John Powell / Two Weeks Notice

Used drive : PLEXTOR DVDR PX-L890SA Adapter: 1 ID: 0

Read mode : SecureUtilize accurate stream : YesDefeat audio cache : YesMake use of C2 pointers : No

Read offset correction : 6Overread into Lead-In and Lead-Out : NoFill up missing offset samples with silence : YesDelete leading and trailing silent blocks : NoNull samples used in CRC calculations : YesUsed interface : Installed external ASPI interfaceGap handling : Appended to previous track

Used output format : User Defined EncoderSelected bitrate : 1024 kBit/sQuality : HighAdd ID3 tag : NoCommand line compressor : C:\Program Files\Exact Audio Copy\Flac\flac.exeAdditional command line options : -V -8 -T "Genre=%genre%" -T "Artist=%artist%" -T "Title=%title%" -T "Album=%albumtitle%" -T "Date=%year%" -T "Tracknumber=%tracknr%" -T "Comment=%comment%" %source%

TOC of the extracted CD

Track | Start | Length | Start sector | End sector --------------------------------------------------------- 1 | 0:00.00 | 1:38.57 | 0 | 7406 2 | 1:38.57 | 1:24.57 | 7407 | 13763 3 | 3:03.39 | 2:40.61 | 13764 | 25824 4 | 5:44.25 | 1:31.19 | 25825 | 32668 5 | 7:15.44 | 2:30.67 | 32669 | 43985 6 | 9:46.36 | 0:51.31 | 43986 | 47841 7 | 10:37.67 | 3:15.43 | 47842 | 62509 8 | 13:53.35 | 1:26.37 | 62510 | 68996 9 | 15:19.72 | 0:44.50 | 68997 | 72346 10 | 16:04.47 | 1:40.31 | 72347 | 79877 11 | 17:45.03 | 2:41.23 | 79878 | 91975 12 | 20:26.26 | 2:51.56 | 91976 | 104856 13 | 23:18.07 | 2:44.26 | 104857 | 117182 14 | 26:02.33 | 3:41.47 | 117183 | 133804 15 | 29:44.05 | 0:41.69 | 133805 | 136948

Track 1

Filename F:\torrent\Two Weeks Notice_John Powell\score\01 Love Theme.wav

Pre-gap length 0:00:02.00

Peak level 97.3 % Extraction speed 4.2 X Track quality 100.0 % Test CRC E786F145 Copy CRC E786F145 Accurately ripped (confidence 2) [F9BA106E] (AR v1) Copy OK

Track 2

Filename F:\torrent\Two Weeks Notice_John Powell\score\02 Divorce.wav

Peak level 97.5 % Extraction speed 4.2 X Track quality 100.0 % Test CRC 6F14A900 Copy CRC 6F14A900 Cannot be verified as accurate (confidence 3) [6536C0C0], AccurateRip returned [38AAB408] (AR v2) Copy OK

Track 3

Filename F:\torrent\Two Weeks Notice_John Powell\score\03 Take Away.wav

Peak level 97.6 % Extraction speed 5.2 X Track quality 100.0 % Test CRC 7F9D28FE Copy CRC 7F9D28FE Accurately ripped (confidence 2) [18E28DA7] (AR v1) Copy OK

Track 4

Filename F:\torrent\Two Weeks Notice_John Powell\score\04 Trying To Get Fired.wav

Peak level 97.6 % Extraction speed 4.7 X Track quality 100.0 % Test CRC 3EBEFCA3 Copy CRC 3EBEFCA3 Accurately ripped (confidence 2) [15FA03EE] (AR v1) Copy OK

Track 5

Filename F:\torrent\Two Weeks Notice_John Powell\score\05 Helicopter Ride.wav

Peak level 97.6 % Extraction speed 5.5 X Track quality 100.0 % Test CRC F78FA4E5 Copy CRC F78FA4E5 Accurately ripped (confidence 2) [2B9A7903] (AR v1) Copy OK

Track 6

Filename F:\torrent\Two Weeks Notice_John Powell\score\06 In The Limo.wav

Peak level 97.6 % Extraction speed 4.1 X Track quality 100.0 % Test CRC B665EBC7 Copy CRC B665EBC7 Accurately ripped (confidence 2) [AB1E4F20] (AR v1) Copy OK

Track 7

Filename F:\torrent\Two Weeks Notice_John Powell\score\07 Bobcat Pretzel.wav

Peak level 97.6 % Extraction speed 6.1 X Track quality 100.0 % Test CRC 9FD04844 Copy CRC 9FD04844 Cannot be verified as accurate (confidence 3) [4363DB72], AccurateRip returned [858F17B9] (AR v2) Copy OK

Track 8

Filename F:\torrent\Two Weeks Notice_John Powell\score\08 Protest.wav

Peak level 77.3 % Extraction speed 5.3 X Track quality 100.0 % Test CRC E8AA9256 Copy CRC E8AA9256 Accurately ripped (confidence 2) [92BAADD4] (AR v1) Copy OK

Track 9

Filename F:\torrent\Two Weeks Notice_John Powell\score\09 Interviews.wav

Peak level 83.5 % Extraction speed 4.2 X Track quality 100.0 % Test CRC BD0EADEF Copy CRC BD0EADEF Accurately ripped (confidence 2) [B8F626E8] (AR v1) Copy OK

Track 10

Filename F:\torrent\Two Weeks Notice_John Powell\score\10 Emergency.wav

Peak level 86.8 % Extraction speed 5.7 X Track quality 100.0 % Test CRC 54B165B4 Copy CRC 54B165B4 Accurately ripped (confidence 2) [B8CE7C46] (AR v1) Copy OK

Track 11

Filename F:\torrent\Two Weeks Notice_John Powell\score\11 Absolutely Beautiful.wav

Peak level 94.4 % Extraction speed 5.5 X Track quality 99.9 % Test CRC BEDB6CCD Copy CRC BEDB6CCD Accurately ripped (confidence 2) [E4E52CD0] (AR v1) Copy OK

Track 12

Filename F:\torrent\Two Weeks Notice_John Powell\score\12 Sad Bowels.wav

Peak level 86.8 % Extraction speed 6.9 X Track quality 100.0 % Test CRC A2267419 Copy CRC A2267419 Accurately ripped (confidence 2) [393BBEAE] (AR v1) Copy OK

Track 13

Filename F:\torrent\Two Weeks Notice_John Powell\score\13 George''s Speech.wav

Peak level 94.2 % Extraction speed 6.2 X Track quality 99.9 % Test CRC ECE082F1 Copy CRC ECE082F1 Cannot be verified as accurate (confidence 3) [41E5C995], AccurateRip returned [AFD73727] (AR v2) Copy OK

Track 14

Filename F:\torrent\Two Weeks Notice_John Powell\score\14 Finale.wav

Peak level 97.6 % Extraction speed 7.9 X Track quality 100.0 % Test CRC 2253737B Copy CRC 2253737B Accurately ripped (confidence 2) [CD69310B] (AR v1) Copy OK

Track 15

Filename F:\torrent\Two Weeks Notice_John Powell\score\15 Epilogue.wav

Peak level 97.6 % Extraction speed 4.7 X Track quality 100.0 % Test CRC 4F7E8C74 Copy CRC 4F7E8C74 Accurately ripped (confidence 2) [1B2593A3] (AR v1) Copy OK

12 трек(и) скопированы точно 3 трек(и) не удалось проверить на точность

Some tracks could not be verified as accurate

No errors occurred

End of status report

==== Log checksum 8048095D4B76621AE4C918E10FABB0EF578CFEE7387C46E6B53A30094EFD99C3 ====
REM GENRE ScoreREM DATE 2002REM DISCID CA07210FREM COMMENT "ExactAudioCopy v1.0b3"PERFORMER "John Powell"TITLE "Two Weeks Notice"FILE "01 Love Theme.wav" WAVE TRACK 01 AUDIO TITLE "Love Theme" PERFORMER "John Powell" INDEX 01 00:00:00FILE "02 Divorce.wav" WAVE TRACK 02 AUDIO TITLE "Divorce" PERFORMER "John Powell" INDEX 01 00:00:00FILE "03 Take Away.wav" WAVE TRACK 03 AUDIO TITLE "Take Away" PERFORMER "John Powell" INDEX 01 00:00:00FILE "04 Trying To Get Fired.wav" WAVE TRACK 04 AUDIO TITLE "Trying To Get Fired" PERFORMER "John Powell" INDEX 01 00:00:00FILE "05 Helicopter Ride.wav" WAVE TRACK 05 AUDIO TITLE "Helicopter Ride" PERFORMER "John Powell" INDEX 01 00:00:00FILE "06 In The Limo.wav" WAVE TRACK 06 AUDIO TITLE "In The Limo" PERFORMER "John Powell" INDEX 01 00:00:00FILE "07 Bobcat Pretzel.wav" WAVE TRACK 07 AUDIO TITLE "Bobcat Pretzel" PERFORMER "John Powell" INDEX 01 00:00:00FILE "08 Protest.wav" WAVE TRACK 08 AUDIO TITLE "Protest" PERFORMER "John Powell" INDEX 01 00:00:00FILE "09 Interviews.wav" WAVE TRACK 09 AUDIO TITLE "Interviews" PERFORMER "John Powell" INDEX 01 00:00:00FILE "10 Emergency.wav" WAVE TRACK 10 AUDIO TITLE "Emergency" PERFORMER "John Powell" INDEX 01 00:00:00FILE "11 Absolutely Beautiful.wav" WAVE TRACK 11 AUDIO TITLE "Absolutely Beautiful" PERFORMER "John Powell" INDEX 01 00:00:00FILE "12 Sad Bowels.wav" WAVE TRACK 12 AUDIO TITLE "Sad Bowels" PERFORMER "John Powell" INDEX 01 00:00:00FILE "13 George''s Speech.wav" WAVE TRACK 13 AUDIO TITLE "George''s Speech" PERFORMER "John Powell" INDEX 01 00:00:00FILE "14 Finale.wav" WAVE TRACK 14 AUDIO TITLE "Finale" PERFORMER "John Powell" INDEX 01 00:00:00FILE "15 Epilogue.wav" WAVE TRACK 15 AUDIO TITLE "Epilogue" PERFORMER "John Powell" INDEX 01 00:00:00
AUDIOCHECKER v2.0 beta (build 457) - by Dester - opdester@freemail.hu~~~~~~~~~~~~~~~~~~~~~~~~~~~~~~~~~~-=== НЕ РЕДАКТИРУЙТЕ ЭТОТ ФАЙЛ! ===-

Путь: ...\score

01 -=- 01 Love Theme.flac -=- CDDA (99%)02 -=- 02 Divorce.flac -=- CDDA (100%)03 -=- 03 Take Away.flac -=- CDDA (100%)04 -=- 04 Trying To Get Fired.flac -=- CDDA (100%)05 -=- 05 Helicopter Ride.flac -=- CDDA (100%)06 -=- 06 In The Limo.flac -=- CDDA (100%)07 -=- 07 Bobcat Pretzel.flac -=- CDDA (100%)08 -=- 08 Protest.flac -=- CDDA (99%)09 -=- 09 Interviews.flac -=- CDDA (54%)10 -=- 10 Emergency.flac -=- CDDA (100%)11 -=- 11 Absolutely Beautiful.flac -=- CDDA (100%)12 -=- 12 Sad Bowels.flac -=- CDDA (100%)13 -=- 13 George''s Speech.flac -=- CDDA (100%)14 -=- 14 Finale.flac -=- CDDA (99%)15 -=- 15 Epilogue.flac -=- CDDA (100%)

Сводка 96,73% CDDA

244302116


Трекер:  [ 13-Май-2013 15:25 ]

  

Скачать .torrent

Размер .torrent файла 16 KB


Размер: 190 MB
Хэш (hash) релиза: 0d5e1e0250b17d0b6a24fb6fd60f0c1840db8571

Торренты, похожие на Любовь с уведомлением Two Weeks Notice скачать торрент

Форум Название Автор Размер S L Добавлен
Саундтреки к фильмам и мультфильмам (mp3) ·· (Score) Любовь с уведомлением / Two Weeks Notice (by John Powell) - 2003 (2002), MP3 (tracks), 320 kbps Galfimbul 7309608070 MB 0 0 1461354568

22:49

22-Апр-16

bot

Топик был перенесен в форум Саундтреки к фильмам и мультфильмам (lossless)

Перенес Galfimbul

Хотите добавить комментарий к записи скачать торрент Любовь с уведомлением Two Weeks Notice

!Обратная связь