Скачать через торрент музыку Танцы на краю Dancing on the Edge бесплатно без регистрации torrent

Если у вас наблюдаются проблемы со скриншотами, переходом по ссылками, скачиванием торрентов - проблемы в блокировщике рекламы AdBlock. #хорошегоДня!


Статистика раздачи
Размер:  391 MB   |    Зарегистрирован:  4 года 4 месяца   |    .torrent скачан:  26 раз   |   
Раздают:  1  
   
Загрузка...
 
Автор Сообщение

Galfimbul

avatar Galfimbul


Танцы на краю / Dancing on the Edge

Название альбома: Louis Lester Band - Dancing on the Edge
Жанр: Score
Композитор: Adrian Johnston
Год выпуска диска: 2013
Страна-производитель диска: UK
Издатель (лейбл): Decca
Номер по каталогу: 00602537255467
Аудиокодек: WavPack (*.wv)
Тип рипа: image+.cue
Битрейт аудио: lossless
Продолжительность: 39:10
Источник: релизер
Наличие сканов в содержимом раздачи: да
Треклист:
1. Dancing On The Moon
2. Dead Of Night Express
3. Downtown Uptempo
4. Lovelorn Blues
5. On Top Of The World
6. Here To Stay
7. This Girl''s Going Far
8. Sweet Mary Jane
9. Things Are Looking Up - It''s Christmas!
10. It''s Got A Grip On Me
11. Dowagers'' Delight
12. Crazy In A Mood For Love
13. Down River
14. Blue Sky In Bermondsey
15. Big Ben Blues
16. Mayfair Strut
17. When I Dream Of You
18. Lead Me On 3:23
19. Dancing On The Moon (Carla''s Version)
Exact Audio Copy V1.0 beta 3 from 29. August 2011

EAC extraction logfile from 15. April 2013, 17:54

Louis Lester Band / Dancing On The Edge

Used drive : ATAPI iHAS324 A Adapter: 0 ID: 1

Read mode : SecureUtilize accurate stream : YesDefeat audio cache : YesMake use of C2 pointers : No

Read offset correction : 6Overread into Lead-In and Lead-Out : NoFill up missing offset samples with silence : YesDelete leading and trailing silent blocks : NoNull samples used in CRC calculations : YesUsed interface : Native Win32 interface for Win NT & 2000

Used output format : Internal WAV RoutinesSample format : 44.100 Hz; 16 Bit; Stereo

TOC of the extracted CD

Track | Start | Length | Start sector | End sector --------------------------------------------------------- 1 | 0:00.00 | 2:07.15 | 0 | 9539 2 | 2:07.15 | 2:16.13 | 9540 | 19752 3 | 4:23.28 | 1:50.18 | 19753 | 28020 4 | 6:13.46 | 1:45.47 | 28021 | 35942 5 | 7:59.18 | 2:41.33 | 35943 | 48050 6 | 10:40.51 | 2:30.36 | 48051 | 59336 7 | 13:11.12 | 2:01.37 | 59337 | 68448 8 | 15:12.49 | 1:33.24 | 68449 | 75447 9 | 16:45.73 | 1:56.50 | 75448 | 84197 10 | 18:42.48 | 1:38.22 | 84198 | 91569 11 | 20:20.70 | 1:19.69 | 91570 | 97563 12 | 21:40.64 | 1:55.32 | 97564 | 106220 13 | 23:36.21 | 1:57.20 | 106221 | 115015 14 | 25:33.41 | 1:40.33 | 115016 | 122548 15 | 27:13.74 | 3:00.27 | 122549 | 136075 16 | 30:14.26 | 1:31.11 | 136076 | 142911 17 | 31:45.37 | 2:19.30 | 142912 | 153366 18 | 34:04.67 | 3:23.56 | 153367 | 168647 19 | 37:28.48 | 1:41.50 | 168648 | 176272

Range status and errors

Selected range

Filename D:\rips\Louis Lester Band - Dancing On The Edge.wav

Peak level 92.2 % Extraction speed 5.4 X Range quality 100.0 % Test CRC BB89AA65 Copy CRC BB89AA65 Copy OK

No errors occurred

AccurateRip summary

Track 1 not present in databaseTrack 2 not present in databaseTrack 3 not present in databaseTrack 4 not present in databaseTrack 5 not present in databaseTrack 6 not present in databaseTrack 7 not present in databaseTrack 8 not present in databaseTrack 9 not present in databaseTrack 10 not present in databaseTrack 11 not present in databaseTrack 12 not present in databaseTrack 13 not present in databaseTrack 14 not present in databaseTrack 15 not present in databaseTrack 16 not present in databaseTrack 17 not present in databaseTrack 18 not present in databaseTrack 19 not present in database

None of the tracks are present in the AccurateRip database

End of status report

---- CUETools DB Plugin V2.1.3

[CTDB TOCID: sbO7XLzI3ImX5rUv4M7_h9D06.w-] disk not present in database, Submit result: sbO7XLzI3ImX5rUv4M7_h9D06.w- has been uploaded

==== Log checksum C5AD5DBADD9060C83238838C4CA43AA4E021F29B79FFC0C86A570CB09B367393 ====
http://www.youtube.com/watch?v=VdImu56_JRE

Трекер:  [ 13-Май-2013 15:24 ]

  

Скачать .torrent

Размер .torrent файла 16 KB


Размер: 391 MB
Хэш (hash) релиза: 5cddbb85dc150365a4f9f04ef6b09bd1fc155790

bot

Топик был перенесен в форум Саундтреки к фильмам и мультфильмам (lossless)

Перенес Galfimbul

Хотите добавить комментарий к записи скачать торрент Танцы на краю Dancing on the Edge

!Обратная связь