Скачать порно через торрент BBG3 custoStargate3D UnionPeer.org бесплатно онлайн HD качество

Скачать новое порно 2015, 2014 новинки через торрент UnionPeer.org

Порно торрент бесплатно ЮнионПир.орг

Если у вас наблюдаются проблемы со скриншотами, переходом по ссылками, скачиванием торрентов - проблемы в блокировщике рекламы AdBlock. #хорошегоДня!


Статистика раздачи
Размер:  671 MB   |    Зарегистрирован:  4 года 6 месяцев   |    .torrent скачан:  571 раз   |   
Раздают:  1  
   
Загрузка...
 
Автор Сообщение

Galfimbul

avatar Galfimbul



Год производства: 2013 г.
RELESE ???
Жанр: DEMO
Серии: 1
Продолжительность: 1:33
Цензура: Нету пока такоий

Язык: Японский
Озвучка: Оригинальная
Студия: StarGate

Описание:

ПО инфо из Stargate то ета пробная версия и когдато будет полноя версия

Качество видео: GameRip
Формат видео: WMV
Видео кодек: Windows Media
Аудио кодек: WMA
Video: 2,105 Kbps, 800*600(4:3), at 30.000 Fps, Vc-1 (WM3)
Audio: 440Kbs, 44,1 Khz, 24 bit, 2 channels, WMA
Format : Windows Media
File size : 28.8 MiB
Duration : 1mn 33s
Overall bit rate mode : Variable
Overall bit rate : 2 569 Kbps
Maximum Overall bit rate : 3 046 Kbps
Encoded date : UTC 2013-05-17 20:53:30.983

Video
ID : 1
Format : VC-1
Format profile : MP@HL
Codec ID : WMV3
Codec ID/Info : Windows Media Video 9
Codec ID/Hint : WMV3
Description of the codec : Windows Media Video 9
Duration : 1mn 33s
Bit rate mode : Variable
Bit rate : 2 105 Kbps
Width : 800 pixels
Height : 600 pixels
Display aspect ratio : 4:3
Frame rate : 30.000 fps
Bit depth : 8 bits
Scan type : Progressive
Compression mode : Lossy
Bits/(Pixel*Frame) : 0.146
Stream size : 23.6 MiB (82%)
Language : Latvian

Audio
ID : 2
Format : WMA
Format profile : Pro
Codec ID : 162
Codec ID/Info : Windows Media Audio
Description of the codec : Windows Media Audio 10 Professional - 440 kbps, 44 kHz, 2 channel 24 bit (A/V) 1-pass CBR
Duration : 1mn 33s
Bit rate mode : Constant
Bit rate : 440 Kbps
Channel(s) : 2 channels
Sampling rate : 44.1 KHz
Bit depth : 24 bits
Stream size : 4.93 MiB (17%)

BBG3 custom / BBG3カスタム / BBG3 пользовательских
Год производства: 2013 г.
RELESE 01.04.2013[/
Жанр: Chirarizumu boobs juice / liquid mass glasses shortcut twin tail
Серии: 1
Продолжительность: 17:01
Цензура: Есть во всех файлах

Язык: Японский
Озвучка: Оригинальная
Студия: StarGate

Описание:

3D simulation game delusion "BBG3 custom" this software is content maniac to balance ball to customize the girl.
The contents for people to be intrigued by the Chirarizumu like erotic wear and IV than the radical content, such as AV.
Three hair style, two colors of skin, two bust size, the custom character mode it is possible to combine the 36 street from three costume.
It is possible to balance the ball on the character in combination with their own preferences in the play mode.
Basic content is a very stoic, but was equipped with a button to put perspective button Bukkake.

DLSITE

Качество видео: GameRip
Формат видео: WMV
Видео кодек: Windows Media
Аудио кодек: WMA
Video: 2,395 Kbps, 800*600(4:3), at 30.000 Fps, Vc-1 (WM3)
Audio: 440Kbs, 44,1 Khz, 24 bit, 2 channels, WMA
Format : Windows Media
File size : 364 MiB
Duration : 17mn 50s
Overall bit rate mode : Variable
Overall bit rate : 2 853 Kbps
Maximum Overall bit rate : 3 781 Kbps
Encoded date : UTC 2013-05-17 20:57:39.322

Video
ID : 1
Format : VC-1
Format profile : MP@HL
Codec ID : WMV3
Codec ID/Info : Windows Media Video 9
Codec ID/Hint : WMV3
Description of the codec : Windows Media Video 9
Duration : 17mn 50s
Bit rate mode : Variable
Bit rate : 2 395 Kbps
Width : 800 pixels
Height : 600 pixels
Display aspect ratio : 4:3
Frame rate : 30.000 fps
Bit depth : 8 bits
Scan type : Progressive
Compression mode : Lossy
Bits/(Pixel*Frame) : 0.166
Stream size : 306 MiB (84%)
Language : Latvian

Audio
ID : 2
Format : WMA
Format profile : Pro
Codec ID : 162
Codec ID/Info : Windows Media Audio
Description of the codec : Windows Media Audio 10 Professional - 440 kbps, 44 kHz, 2 channel 24 bit (A/V) 1-pass CBR
Duration : 17mn 50s
Bit rate mode : Constant
Bit rate : 440 Kbps
Channel(s) : 2 channels
Sampling rate : 44.1 KHz
Bit depth : 24 bits
Stream size : 56.2 MiB (15%)

Sister / 妹のエロ過ぎる誘惑 / Сестра

Год производства: 2013 г.
RELESE 02.02.2013[/
Жанр: Breasts Dirty Talk Younger Sister Underwear Incest Twin Tail
Серии: 1
Продолжительность: 11:55
Цензура: Есть во всех файлах

Язык: Японский
Озвучка: Оригинальная
Студия: StarGate

Описание: Check out this lollipop teen barbie!
Based on the character from 3D digital novel "Imouto no Ero-sugiru Yuuwaku" (Little Sister's Too Lewd Temptation)

STORY
Mom and dad are on vacation. It's just big brother and sexy sassy imouto Yui. And Yui is a naughty girl.
You can't withstand her perky pouty allure. She gives you a handie and graduates to full throat-hilt oral sex.
Next thing she's riding you to a cummy internal orgasm, f*cks you between her big tits until you cum on
her face, then you make love face to face missionary style. It's three days of parental-free incest heaven.

Voiced (CV) by Yuu Shimotsuki

DLSITE

Качество видео: GameRip
Формат видео: WMV
Видео кодек: Windows Media
Аудио кодек: WMA
Video: 2,500 Kbps, 800*600(4:3), at 29.000 Fps, Vc-1 (WM3)
Audio: 192Kbs, 44,1 Khz, 16 bit, 2 channels, WMA
Video
ID : 2
Format : VC-1
Format profile : MP@HL
Codec ID : WMV3
Codec ID/Info : Windows Media Video 9
Codec ID/Hint : WMV3
Description of the codec : Windows Media Video 9 - Professional
Duration : 10mn 14s
Bit rate mode : Constant
Bit rate : 2 500 Kbps
Width : 800 pixels
Height : 600 pixels
Display aspect ratio : 4:3
Frame rate : 29.000 fps
Bit depth : 8 bits
Scan type : Progressive
Compression mode : Lossy
Bits/(Pixel*Frame) : 0.180
Stream size : 183 MiB (92%)
Language : Russian

Audio
ID : 1
Format : WMA
Format version : Version 2
Codec ID : 161
Codec ID/Info : Windows Media Audio
Description of the codec : Windows Media Audio 9.2 - 192 kbps, 44 kHz, stereo (A/V) 1-pass CBR
Duration : 10mn 14s
Bit rate mode : Constant
Bit rate : 192 Kbps
Channel(s) : 2 channels
Sampling rate : 44.1 KHz
Bit depth : 16 bits
Stream size : 14.1 MiB (7%)

Balance Ball Girl / バランスボールガール / Девушка Balance Ball
Год производства: 2012 г.
RELESE 08.12.2012
Жанр: Chirarism (Peeping) Fetish Breasts Robot Twin Tail Big Breasts
Серии: 1
Продолжительность: 3:39
Цензура: Есть во всех файлах

Язык: Японский
Озвучка: Оригинальная
Студия: StarGate
Описание: Nothing but cutie android bouncing on a balance ball! Press the button to glisten her with fluids! (for some reason!)
She won't get off that ball no matter what.

3D movie with various options like zoom, outfits, fluids.

DLSITE

Качество видео: GameRip
Формат видео: WMV
Видео кодек: Windows Media
Аудио кодек: WMA
Video: 1,648 Kbps, 856*640(4:3), at 10.000 Fps, Vc-1 (WM3)
Audio: 1411Kbps, 44,1 Khz, 16 bit, 2 channels, WMA
Video
ID : 0
Format : VC-1
Codec ID : WMV3
Codec ID/Info : Windows Media Video 9
Codec ID/Hint : WMV3
Duration : 3mn 39s
Bit rate : 1 648 Kbps
Width : 856 pixels
Height : 640 pixels
Display aspect ratio : 4:3
Frame rate : 10.000 fps
Bit depth : 8 bits
Compression mode : Lossy
Bits/(Pixel*Frame) : 0.301
Stream size : 43.2 MiB (54%)

Audio
ID : 1
Format : PCM
Format settings, Endianness : Little
Format settings, Sign : Signed
Codec ID : 1
Duration : 3mn 39s
Bit rate mode : Constant
Bit rate : 1 411.2 Kbps
Channel(s) : 2 channels
Sampling rate : 44.1 KHz
Bit depth : 16 bits
Stream size : 37.0 MiB (46%)
Interleave, duration : 371 ms (3.71 video frames)
Приятного просмотра! Пожалуйста, поддержите раздачу!
Спасибо за Ваши будующие комментарии!

Трекер:  [ 17-Май-2013 11:21 ]

  

Скачать .torrent

Размер .torrent файла 14 KB


Размер: 671 MB
Хэш (hash) релиза: 16ba2cc92b5ef1eedc28a75faf969f2fb9f7a9d5

Торренты, похожие на BBG3 custoStargate3D скачать торрент

Форум Название Автор Размер S L Добавлен
Хентай, порно и эротические мультфильмы ·· Nokia/DoLLBox2/DoLLBox/BBG3 custom/Stargate3D/Balance Ball Girl/Девушка / Sister / Сестра (Stargate)[cen][2012-2014 г ., Big tits, Dirty Talk, Younger Sister, Underwear, Incest, Oral, POV, Straight GameRip] [jap] Galfimbul 10655601021016 MB 0 0 1405033255

02:00

11-Июл-14

bot

Топик был перенесен в форум Хентай | С цензурой

Перенес Galfimbul

Хотите добавить комментарий к записи скачать торрент BBG3 custoStargate3D

!Обратная связь