Скачать порно через торрент Machinery assault to the beloved maidens 4 Anchor Bolt Constraint Spasms: Pole Ramme FXD ai jou ki kan IV ankaboruto kousoku keiren zecchou kyoku dou FXD UnionPeer.org бесплатно онлайн HD качество

Скачать новое порно 2015, 2014 новинки через торрент UnionPeer.org

Порно торрент бесплатно ЮнионПир.орг

Если у вас наблюдаются проблемы со скриншотами, переходом по ссылками, скачиванием торрентов - проблемы в блокировщике рекламы AdBlock. #хорошегоДня!


Статистика раздачи
Размер:  464 MB   |    Зарегистрирован:  4 года 3 месяца   |    .torrent скачан:  380 раз   |   
Раздают:  1  
   
Загрузка...
 
Автор Сообщение

LinGr

avatar LinGr


Machinery assault to the beloved maidens 4 - Anchor Bolt Constraint Spasms: Pole Ramme FXD
最愛の乙女4〜機械暴行 - アンカーボルト拘束痙攣ポールランマー
ai jou ki kan IV ankaboruto kousoku keiren zecchou kyoku dou FXD
Машины нападения к любимой девиц 4 - Анкерный болт ограничения Спазмы полюс Раммер

Год производства: 2013 г.
Жанр: Successive Orgasms Anime Collar/Chain/Hamper Uniform Neglect Robot Sex
Серии: 1
Продолжительность: 46:26
Цензура: Есть во всех файлах

Язык: Японский
Озвучка: Оригинальная
Субтитры: Встроенные неотключаемые (хардсаб)

Студия: 01-Torte
DLLSite

Описание: ***Hardcore JK Assault Machine F*cking Animation ***

studio 01-Torte presents the fourth in the MABM - Extreme Anime! - series!

Limb locked in a mysterious factory----
The orgasms come fierce and hard for high school girl Aki, who can only move
to the machine's rhythmic thrusts. Her previously untouched body arches in pleasure as she cums
her tightly restrained p*ssy into bawdy looseness on devices dripping with her own squirting hole-juice.
Sailor fuku-adorned young Erika also shudders to the relentless mechanical process----
It's climax after inescapable climax!

Amazingly erotic animation fusing 2D and 3D with dynamic effects using special technology named "AE3D-Advanced."

* High powered washlet micro jets splash clits to that can't evade the sensation
* Double plugged by a double-boring vibrator fitted with adjustable rings
* Full restraint in an annular locking chair with tentacle tongue and high rotation, piston vibes
* Strapped by latex into the devil deep throater that injects drugs, enema and pumps milk, buzzes to gushing orgasm
* Hogtied to an industrial iron bar and machine gun f*cked by rapidfire pleasure pulses
* The Suffocycle forces its rider to self-violate on pistons to keep the gas mask from filling with deadly poison
... and more XXXtreme hardcore with the fisting machine (incl. anal) and clit masturbator

Качество видео: GameRip
Формат видео: AVI
Видео кодек: H.264/AVC
Аудио кодек: MP3
Видео: 1193 Kbps, 1280*720 (16:9), at 29.970 Fps, AVC
Аудио 1: 192Kbs, 44.1KHz, 2 channels, Mpeg Audio (mp3)
Video
ID : 0
Format : AVC
Format/Info : Advanced Video Codec
Format profile : Main@L5.1
Format settings, CABAC : Yes
Format settings, ReFrames : 1 frame
Codec ID : H264
Duration : 46mn 26s
Bit rate : 1 193 Kbps
Width : 1 280 pixels
Height : 720 pixels
Display aspect ratio : 16:9
Frame rate : 29.970 fps
Color space : YUV
Chroma subsampling : 4:2:0
Bit depth : 8 bits
Scan type : Progressive
Bits/(Pixel*Frame) : 0.043
Stream size : 396 MiB (85%)

Audio
ID : 1
Format : MPEG Audio
Format version : Version 1
Format profile : Layer 3
Codec ID : 55
Codec ID/Hint : MP3
Duration : 46mn 26s
Bit rate mode : Constant
Bit rate : 192 Kbps
Channel(s) : 2 channels
Sampling rate : 44.1 KHz
Compression mode : Lossy
Stream size : 63.8 MiB (14%)
Alignment : Split accross interleaves
Interleave, duration : 33 ms (1.00 video frame)
Interleave, preload duration : 109 ms
Writing library : LAMELAME_MAJOR_VERSI
                                   


Трекер:  [ 12-Май-2013 13:54 ]

  

Скачать .torrent

Размер .torrent файла 18 KB


Размер: 464 MB
Хэш (hash) релиза: 42de825533d21955f7f6dc61f58d8d9fcd9c91c5

bot

Топик был перенесен в форум Хентай | С цензурой

Перенес Mahmud_1

Хотите добавить комментарий к записи скачать торрент Machinery assault to the beloved maidens 4 Anchor Bolt Constraint Spasms: Pole Ramme FXD ai jou ki kan IV ankaboruto kousoku keiren zecchou kyoku dou FXD

!Обратная связь