Скачать через торрент музыку Питер FM бесплатно без регистрации torrent

Если у вас наблюдаются проблемы со скриншотами, переходом по ссылками, скачиванием торрентов - проблемы в блокировщике рекламы AdBlock. #хорошегоДня!


Статистика раздачи
Размер:  565 MB   |    Зарегистрирован:  4 года 4 месяца   |    .torrent скачан:  31 раз   |   
Раздают:  1  
   
Загрузка...
 
Автор Сообщение

Galfimbul

avatar Galfimbul


Питер FM

════════════ஜ۩۞۩ஜ═══════════

Жанр: Soundtrack / Score
Композитор: Кирилл Пирогов
Год выпуска диска / фильма: 2006
Страна-производитель диска: Россия
Издатель (лейбл): Real Records
Номер по каталогу: RR-339-CD
Аудиокодек: FLAC (*.flac)
Тип рипа: tracks+.cue
Битрейт аудио: lossless
Продолжительность: 1:01:43
Источник: Собственный рип Оригинального диска
Наличие сканов в содержимом раздачи: да, PNG (600 DPI)

════════════ஜ۩۞۩ஜ═══════════

Треклист:
01. Кирилл Пирогов - Музыка города (3:19)
02. Ундервуд - Сегодня модно быть ди-джеем (4:29)
03. Кирилл Пирогов - Перекресток (2:09)
04. Пеп-си - Диско (3:44)
05. Кирилл Пирогов - Решетка (1:25)
06. Uncle L - Летний дождь (5:41)
07. Город 312 - Вне зоны доступа (3:32)
08. Кирилл Пирогов - Вокализ (4:19)
09. Пеп-си - Уступите парню лыжню (2:39)
10. Кирилл Пирогов - Медленная музыка (3:00)
11. Асман и пицца - По волнам... (3:40)
12. Кирилл Пирогов - Фортепиано (1:24)
13. DJ Кефир - Возьми меня (5:33)
14. Krec - Нежность (3:59)
15. Кирилл Пирогов - Гитара (1:01)
16. Мумий Тролль - Такие девчонки (4:37)
17. Кирилл Пирогов - Музыка дождя (1:33)
18. Аквариум - 2-12-85-06 (5:38)
Exact Audio Copy V1.0 beta 3 from 29. August 2011

EAC extraction logfile from 3. May 2013, 14:19

Various Artists / Питер FM

Used drive : Optiarc DVD RW AD-7283S Adapter: 3 ID: 0

Read mode : SecureUtilize accurate stream : YesDefeat audio cache : YesMake use of C2 pointers : No

Read offset correction : 48Overread into Lead-In and Lead-Out : NoFill up missing offset samples with silence : YesDelete leading and trailing silent blocks : NoNull samples used in CRC calculations : YesUsed interface : Native Win32 interface for Win NT & 2000Gap handling : Appended to previous track

Used output format : User Defined EncoderSelected bitrate : 128 kBit/sQuality : HighAdd ID3 tag : NoCommand line compressor : C:\Program Files (x86)\FLAC\flac.exeAdditional command line options : -V -8 -T "Genre=%genre%" -T "Artist=%artist%" -T "Title=%title%" -T "Album=%albumtitle%" -T "Date=%year%" -T "Tracknumber=%tracknr%" -T "Comment=%comment%" %source%

TOC of the extracted CD

Track | Start | Length | Start sector | End sector --------------------------------------------------------- 1 | 0:00.00 | 3:19.11 | 0 | 14935 2 | 3:19.11 | 4:28.49 | 14936 | 35084 3 | 7:47.60 | 2:08.65 | 35085 | 44749 4 | 9:56.50 | 3:44.10 | 44750 | 61559 5 | 13:40.60 | 1:25.15 | 61560 | 67949 6 | 15:06.00 | 5:41.01 | 67950 | 93525 7 | 20:47.01 | 3:32.04 | 93526 | 109429 8 | 24:19.05 | 4:19.01 | 109430 | 128855 9 | 28:38.06 | 2:38.41 | 128856 | 140746 10 | 31:16.47 | 2:59.69 | 140747 | 154240 11 | 34:16.41 | 3:40.27 | 154241 | 170767 12 | 37:56.68 | 1:24.25 | 170768 | 177092 13 | 39:21.18 | 5:33.18 | 177093 | 202085 14 | 44:54.36 | 3:58.70 | 202086 | 220005 15 | 48:53.31 | 1:01.23 | 220006 | 224603 16 | 49:54.54 | 4:37.05 | 224604 | 245383 17 | 54:31.59 | 1:32.71 | 245384 | 252354 18 | 56:04.55 | 5:38.25 | 252355 | 277729

Track 1

Filename F:\New York for RuTracker.org (03.05.2013)\01. Кирилл Пирогов - Музыка города.wav

Pre-gap length 0:00:02.00

Peak level 98.9 % Extraction speed 2.3 X Track quality 100.0 % Test CRC DDEDE1C0 Copy CRC DDEDE1C0 Cannot be verified as accurate (confidence 2) [026D79F0], AccurateRip returned [318341AF] (AR v2) Copy OK

Track 2

Filename F:\New York for RuTracker.org (03.05.2013)\02. Ундервуд - Сегодня модно быть ди-джеем.wav

Peak level 98.9 % Extraction speed 2.7 X Track quality 100.0 % Test CRC 49211F1E Copy CRC 49211F1E Cannot be verified as accurate (confidence 2) [420F7DC3], AccurateRip returned [7A3E58CE] (AR v2) Copy OK

Track 3

Filename F:\New York for RuTracker.org (03.05.2013)\03. Кирилл Пирогов - Перекресток.wav

Peak level 98.9 % Extraction speed 2.5 X Track quality 100.0 % Test CRC 3C5C83F1 Copy CRC 3C5C83F1 Cannot be verified as accurate (confidence 2) [8F5ABA89], AccurateRip returned [59C91913] (AR v2) Copy OK

Track 4

Filename F:\New York for RuTracker.org (03.05.2013)\04. Пеп-си - Диско.wav

Peak level 98.9 % Extraction speed 3.0 X Track quality 100.0 % Test CRC 7E9563B8 Copy CRC 7E9563B8 Track not present in AccurateRip database Copy OK

Track 5

Filename F:\New York for RuTracker.org (03.05.2013)\05. Кирилл Пирогов - Решетка.wav

Peak level 98.9 % Extraction speed 2.5 X Track quality 100.0 % Test CRC BDAF76EA Copy CRC BDAF76EA Track not present in AccurateRip database Copy OK

Track 6

Filename F:\New York for RuTracker.org (03.05.2013)\06. Uncle L - Летний дождь.wav

Peak level 98.9 % Extraction speed 3.5 X Track quality 100.0 % Test CRC 7552030D Copy CRC 7552030D Track not present in AccurateRip database Copy OK

Track 7

Filename F:\New York for RuTracker.org (03.05.2013)\07. Город 312 - Вне зоны доступа.wav

Peak level 96.7 % Extraction speed 3.5 X Track quality 100.0 % Test CRC A7C898F4 Copy CRC A7C898F4 Track not present in AccurateRip database Copy OK

Track 8

Filename F:\New York for RuTracker.org (03.05.2013)\08. Кирилл Пирогов - Вокализ.wav

Peak level 98.8 % Extraction speed 3.8 X Track quality 100.0 % Test CRC 4B242DFC Copy CRC 4B242DFC Track not present in AccurateRip database Copy OK

Track 9

Filename F:\New York for RuTracker.org (03.05.2013)\09. Пеп-си - Уступите парню лыжню.wav

Peak level 98.9 % Extraction speed 3.7 X Track quality 100.0 % Test CRC 53095207 Copy CRC 53095207 Track not present in AccurateRip database Copy OK

Track 10

Filename F:\New York for RuTracker.org (03.05.2013)\10. Кирилл Пирогов - Медленная музыка.wav

Peak level 98.8 % Extraction speed 3.3 X Track quality 99.9 % Test CRC 732CD06E Copy CRC 732CD06E Track not present in AccurateRip database Copy OK

Track 11

Filename F:\New York for RuTracker.org (03.05.2013)\11. Асман и пицца - По волнам....wav

Peak level 98.9 % Extraction speed 4.1 X Track quality 100.0 % Test CRC EED25209 Copy CRC EED25209 Track not present in AccurateRip database Copy OK

Track 12

Filename F:\New York for RuTracker.org (03.05.2013)\12. Кирилл Пирогов - Фортепиано.wav

Peak level 98.9 % Extraction speed 2.6 X Track quality 99.8 % Test CRC 5DA2E315 Copy CRC 5DA2E315 Track not present in AccurateRip database Copy OK

Track 13

Filename F:\New York for RuTracker.org (03.05.2013)\13. DJ Кефир - Возьми меня.wav

Peak level 98.9 % Extraction speed 4.6 X Track quality 100.0 % Test CRC 1C238450 Copy CRC 1C238450 Track not present in AccurateRip database Copy OK

Track 14

Filename F:\New York for RuTracker.org (03.05.2013)\14. Krec - Нежность.wav

Peak level 98.9 % Extraction speed 4.6 X Track quality 100.0 % Test CRC FCBDDD67 Copy CRC FCBDDD67 Track not present in AccurateRip database Copy OK

Track 15

Filename F:\New York for RuTracker.org (03.05.2013)\15. Кирилл Пирогов - Гитара.wav

Peak level 98.9 % Extraction speed 3.3 X Track quality 100.0 % Test CRC 7709B726 Copy CRC 7709B726 Track not present in AccurateRip database Copy OK

Track 16

Filename F:\New York for RuTracker.org (03.05.2013)\16. Мумий Тролль - Такие девчонки.wav

Peak level 98.9 % Extraction speed 4.9 X Track quality 100.0 % Test CRC 3C012711 Copy CRC 3C012711 Track not present in AccurateRip database Copy OK

Track 17

Filename F:\New York for RuTracker.org (03.05.2013)\17. Кирилл Пирогов - Музыка дождя.wav

Peak level 98.9 % Extraction speed 3.2 X Track quality 99.8 % Test CRC F866FB81 Copy CRC F866FB81 Track not present in AccurateRip database Copy OK

Track 18

Filename F:\New York for RuTracker.org (03.05.2013)\18. Аквариум - 2-12-85-06.wav

Peak level 98.9 % Extraction speed 4.8 X Track quality 99.9 % Test CRC 7F15BDF1 Copy CRC 7F15BDF1 Track not present in AccurateRip database Copy OK

3 трек(и) не удалось проверить на точность15 трек(и) не содержатся в базе AccurateRip

No tracks could be verified as accurateYou may have a different pressing from the one(s) in the database

No errors occurred

End of status report

==== Log checksum 8443A5F36E408ED4BC9E4D57E025CFBDDE80552411B80083E4A7B8C055B64A9F ====
REM GENRE SoundtrackREM DATE 2006REM DISCID 1F0E7712REM COMMENT "ExactAudioCopy v1.0b3"PERFORMER "Various Artists"TITLE "Питер FM"FILE "01. Кирилл Пирогов - Музыка города.wav" WAVE TRACK 01 AUDIO TITLE "Музыка города" PERFORMER "Кирилл Пирогов" INDEX 01 00:00:00FILE "02. Ундервуд - Сегодня модно быть ди-джеем.wav" WAVE TRACK 02 AUDIO TITLE "Сегодня модно быть ди-джеем" PERFORMER "Ундервуд" INDEX 01 00:00:00FILE "03. Кирилл Пирогов - Перекресток.wav" WAVE TRACK 03 AUDIO TITLE "Перекресток" PERFORMER "Кирилл Пирогов" INDEX 01 00:00:00FILE "04. Пеп-си - Диско.wav" WAVE TRACK 04 AUDIO TITLE "Диско" PERFORMER "Пеп-си" INDEX 01 00:00:00FILE "05. Кирилл Пирогов - Решетка.wav" WAVE TRACK 05 AUDIO TITLE "Решетка" PERFORMER "Кирилл Пирогов" INDEX 01 00:00:00FILE "06. Uncle L - Летний дождь.wav" WAVE TRACK 06 AUDIO TITLE "Летний дождь" PERFORMER "Uncle L" INDEX 01 00:00:00FILE "07. Город 312 - Вне зоны доступа.wav" WAVE TRACK 07 AUDIO TITLE "Вне зоны доступа" PERFORMER "Город 312" INDEX 01 00:00:00FILE "08. Кирилл Пирогов - Вокализ.wav" WAVE TRACK 08 AUDIO TITLE "Вокализ" PERFORMER "Кирилл Пирогов" INDEX 01 00:00:00FILE "09. Пеп-си - Уступите парню лыжню.wav" WAVE TRACK 09 AUDIO TITLE "Уступите парню лыжню" PERFORMER "Пеп-си" INDEX 01 00:00:00FILE "10. Кирилл Пирогов - Медленная музыка.wav" WAVE TRACK 10 AUDIO TITLE "Медленная музыка" PERFORMER "Кирилл Пирогов" INDEX 01 00:00:00FILE "11. Асман и пицца - По волнам....wav" WAVE TRACK 11 AUDIO TITLE "По волнам..." PERFORMER "Асман и пицца" INDEX 01 00:00:00FILE "12. Кирилл Пирогов - Фортепиано.wav" WAVE TRACK 12 AUDIO TITLE "Фортепиано" PERFORMER "Кирилл Пирогов" INDEX 01 00:00:00FILE "13. DJ Кефир - Возьми меня.wav" WAVE TRACK 13 AUDIO TITLE "Возьми меня" PERFORMER "DJ Кефир" INDEX 01 00:00:00FILE "14. Krec - Нежность.wav" WAVE TRACK 14 AUDIO TITLE "Нежность" PERFORMER "Krec" INDEX 01 00:00:00FILE "15. Кирилл Пирогов - Гитара.wav" WAVE TRACK 15 AUDIO TITLE "Гитара" PERFORMER "Кирилл Пирогов" INDEX 01 00:00:00FILE "16. Мумий Тролль - Такие девчонки.wav" WAVE TRACK 16 AUDIO TITLE "Такие девчонки" PERFORMER "Мумий Тролль" INDEX 01 00:00:00FILE "17. Кирилл Пирогов - Музыка дождя.wav" WAVE TRACK 17 AUDIO TITLE "Музыка дождя" PERFORMER "Кирилл Пирогов" INDEX 01 00:00:00FILE "18. Аквариум - 2-12-85-06.wav" WAVE TRACK 18 AUDIO TITLE "2-12-85-06" PERFORMER "Аквариум" INDEX 01 00:00:00
AUDIOCHECKER v2.0 beta (build 457) - by Dester - opdester@freemail.hu~~~~~~~~~~~~~~~~~~~~~~~~~~~~~~~~~~-=== DO NOT EDIT THIS FILE! ===-

Путь: ...\VA - Питер FM [2006, FLAC]

01 -=- 01. Кирилл Пирогов - Музыка города.flac -=- CDDA (100%)02 -=- 02. Ундервуд - Сегодня модно быть ди-джеем.flac -=- CDDA (100%)03 -=- 03. Кирилл Пирогов - Перекресток.flac -=- CDDA (100%)04 -=- 04. Пеп-си - Диско.flac -=- ERROR05 -=- 05. Кирилл Пирогов - Решетка.flac -=- CDDA (43%)06 -=- 06. Uncle L - Летний дождь.flac -=- CDDA (99%)07 -=- 07. Город 312 - Вне зоны доступа.flac -=- CDDA (100%)08 -=- 08. Кирилл Пирогов - Вокализ.flac -=- CDDA (100%)09 -=- 09. Пеп-си - Уступите парню лыжню.flac -=- MPEG (100%)10 -=- 10. Кирилл Пирогов - Медленная музыка.flac -=- CDDA (100%)11 -=- 11. Асман и пицца - По волнам....flac -=- CDDA (100%)12 -=- 12. Кирилл Пирогов - Фортепиано.flac -=- CDDA (62%)13 -=- 13. DJ Кефир - Возьми меня.flac -=- CDDA (100%)14 -=- 14. Krec - Нежность.flac -=- CDDA (43%)15 -=- 15. Кирилл Пирогов - Гитара.flac -=- CDDA (100%)16 -=- 16. Мумий Тролль - Такие девчонки.flac -=- CDDA (100%)17 -=- 17. Кирилл Пирогов - Музыка дождя.flac -=- CDDA (100%)18 -=- 18. Аквариум - 2-12-85-06.flac -=- CDDA (100%)

Сводка 85,12% CDDA

211476340



Трекер:  [ 13-Май-2013 15:24 ]

  

Скачать .torrent

Размер .torrent файла 14 KB


Размер: 565 MB
Хэш (hash) релиза: 58f7b511e9b1458a585d41bf5b8139173310053c

Торренты, похожие на Питер FM скачать торрент

Форум Название Автор Размер S L Добавлен
Саундтреки к фильмам и мультфильмам (mp3) ·· (Soundtrack) Питер FM - 2006, MP3, 320 kbps Galfimbul 148393222142 MB 0 0 1321366846

17:20

15-Ноя-11

Rap, Hip-Hop, R'n'B (video) ·· Krec - Нежность (Питер FM soundtrack) [2005 г., Русский Рэп, DVD5] Galfimbul 193097728184 MB 0 0 1294835159

15:25

12-Янв-11

bot

Топик был перенесен в форум Саундтреки к фильмам и мультфильмам (lossless)

Перенес Galfimbul

Хотите добавить комментарий к записи скачать торрент Питер FM

!Обратная связь