Скачать через торрент Бтум! Btooom! бесплатно Аниме Все серии на русском torrent

Если у вас наблюдаются проблемы со скриншотами, переходом по ссылками, скачиванием торрентов - проблемы в блокировщике рекламы AdBlock. #хорошегоДня!


Статистика раздачи
Размер:  10.83 GB   |    Зарегистрирован:  4 года 4 месяца   |    .torrent скачан:  66 раз   |   
Раздают:  1  
   
Загрузка...
 
Автор Сообщение

Polarnik

avatar Polarnik



Год выпуска: 2012
Страна: Япония
Жанр: приключения, фантастика, драма
Продолжительность: 12 эп. по 24 мин.
Перевод:

русские субтитры от Blazing Wizard & Jenia aka Zub
Режиссер: Ватанабэ Котоно
Студия:
Описание:
Рёта Сакамото – 22-летний безработный, игрок мирового уровня в популярную командную боевку «Бабах!». То, что он при этом сидит на шее у матери, парня не волнует, мыслями он всецело в виртуальном мире, где крут, беспощаден и неотразим. Только в наше время до виртуальной реальности далеко – в этом Рёта убедился на своей шкуре, очнувшись в джунглях, крепко избитый, с чужой сумкой и полным сумбуром в голове. В общем, вышло так, что чья-то злая воля закинула на необитаемый остров несколько десятков игроков и предложила им сразиться в «Бабах!» вживую и по-крупному. Без оружия, без доспехов – только ручные бомбы, собственные тела и гражданская одежда. Как говорится – естественный отбор!

Но истинного игрока королевской битвой смутить сложно, особенно когда на кону собственная жизнь. Так что вскоре Рёта отбросил интеллигентские сопли и приготовился, как не столь далекие предки, жить по принципу «или ты, или тебя». Главное – выжить, а там уже можно пофилософствовать о смысле бытия и вдоволь поспорить с сердечной подругой Химико – за что им досталась такая участь? Как говорят: не согрешишь - не покаешься, не покаешься – не спасешься. А еще на острове можно повидать новые места, насладиться прекрасной природой, встретить много интересных людей… и убить их!
© Hollow, World Art
Информационные ссылки: AniDB || World Art || MAL
Качество: BDRip
Энкод: Winter - RG Pantheon
Тип видео: без хардсаба
Формат: mkv
Видео: x264 (Hi10p), 1280x720, ~3500 Kbps, 23.976 fps
Аудио JAP: Vorbis, 48000Hz, ~256 Kbps, 2ch
Аудио RUS 1-7: AC3, 48000Hz, ~192 Kbps, 2ch
двухголосая (муж./жен.) от Zendos & Eladiel (Anilibria)
двухголосая (муж./жен.) от Cuba77 & Nika_Lenina (AniDub)
двухголосая (муж./жен.) от DAKJE & Phobia (Animespace)
двухголосая (муж./жен.) от loster01 & Emeri (LE-Production)
двухголосая (муж./жен.) от Mirra & MIKS (Opendub)
двухголосая (муж./жен.) от Mukuro & Lali (Anifilm)

многоголосая от SakaE, BalFor, Viki, Faraway, Лизавета, NIKITOS (SHIZA Project)
01. Start
02. The Bloodstained High School Girl
03. Survival
04. Best in the World
05. Attack
06. Night of Sacrifice
07. Virtual Bride
08. White Ghost
09. The Strongest Player
10. High Level
11. Revival
12. Bonds
Общее
Уникальный идентификатор : 170522127209165394623644633678924513762 (0x80495DFA1642BD18BB3455C34E2881E2)
Полное имя : Z:\Anime\720p\Btooom! [BD] [720p]\[Winter] Btooom! 01 [BDrip 1280x720 x264 Vorbis].mkv
Формат : Matroska
Версия формата : Version 2
Размер файла : 681 Мбайт
Продолжительность : 24 м.
Режим общего битрейта : Переменный
Общий поток : 3895 Кбит/сек
Дата кодирования : UTC 2012-12-01 14:24:23
Программа кодирования : mkvmerge v2.9.8 (''C''est le bon'') built on Aug 13 2009 12:49:06
Библиотека кодирования : libebml v0.7.7 + libmatroska v0.8.1

Видео
Идентификатор : 1
Формат : AVC
Формат/Информация : Advanced Video Codec
Профиль формата : High 10@L4.1
Параметр CABAC формата : Да
Параметр ReFrames формата : 9 кадров
Идентификатор кодека : V_MPEG4/ISO/AVC
Продолжительность : 24 м.
Битрейт : 3562 Кбит/сек
Ширина : 1280 пикселей
Высота : 720 пикселей
Соотношение сторон : 16:9
Режим частоты кадров : Постоянный
Частота кадров : 23,976 кадра/сек
Цветовое пространство : YUV
Субдискретизация насыщенности : 4:2:0
Битовая глубина : 10 бит
Тип развёртки : Прогрессивная
Бит/(Пиксели*Кадры) : 0.161
Размер потока : 623 Мбайт (91%)
Библиотека кодирования : x264 core 129 r2230 1cffe9f
Настройки программы : cabac=1 / ref=9 / deblock=1:-2:-2 / analyse=0x3:0x133 / me=umh / subme=9 / psy=1 / psy_rd=0.90:0.00 / mixed_ref=1 / me_range=24 / chroma_me=1 / trellis=2 / 8x8dct=1 / cqm=0 / deadzone=21,11 / fast_pskip=1 / chroma_qp_offset=-2 / threads=6 / lookahead_threads=1 / sliced_threads=0 / nr=0 / decimate=0 / interlaced=0 / bluray_compat=0 / constrained_intra=0 / bframes=8 / b_pyramid=2 / b_adapt=2 / b_bias=0 / direct=1 / weightb=1 / open_gop=0 / weightp=2 / keyint=250 / keyint_min=23 / scenecut=40 / intra_refresh=0 / rc=crf / mbtree=0 / crf=15.8 / qcomp=0.70 / qpmin=9 / qpmax=40 / qpstep=4 / ip_ratio=1.40 / pb_ratio=1.30 / aq=1:0.90
Default : Нет
Forced : Нет

Аудио
Идентификатор : 2
Формат : Vorbis
Параметр Floor формата : 1
Идентификатор кодека : A_VORBIS
Продолжительность : 24 м.
Вид битрейта : Переменный
Битрейт : 256 Кбит/сек
Каналы : 2 канала
Частота : 48,0 КГц
Метод сжатия : С потерями
Размер потока : 44,8 Мбайт (7%)
Библиотека кодирования : libVorbis (Schaufenugget) (20101101 (Schaufenugget))
Язык : Japanese
Default : Да
Forced : Нет


Данный релиз предназначен для просмотра на ПК. Воспроизведение на иных проигрывателях не гарантируется. Для просмотра рекомендуется Media Player Classic с установленным пакетом кодеков K-Lite.

Данный релиз содержит 10-битное видео (Hi10p). Для корректного воспроизведения обязательно используйте кодеки, поддерживающие 10-битное видео.
Данный релиз предназначен для просмотра с внешними субтитрами и внешними звуковыми дорожками.

Для просмотра с внешней звуковой дорожкой нужно:
перекинуть файлы .mka из папки "RUS Sound [<автор(ы) озвучки>]" в одну папку с видео и переключить звуковую дорожку в плеере при просмотре.
Для просмотра с субтитрами нужно:
перекинуть файлы .ass из папки "RUS Subtitles [<автор(ы) перевода>]" в одну папку с видео - плеер подгрузит их автоматически при открытии видео.


Трекер:  [ 06-Май-2013 18:53 ]

  

Скачать .torrent

Размер .torrent файла 66 KB


Размер: 10.83 GB
Хэш (hash) релиза: d3e7f6d22d0e55c39c02fc5f8eb86790e65653c8
Подписка на обновления:

Торренты, похожие на Бтум! Btooom! скачать торрент

Форум Название Автор Размер S L Добавлен
Манга ·· Inoue Junya - Бтум! / Btooom! [manga] [главы 1-55 + 1 special] [2009 г., экшн, сэйнэн, приключения, фантастика, психология, этти, романтика, драма, трагедия] [incomplete] Polarnik 11537716481.07 GB 0 0 1377788591

18:03

29-Авг-13

Аниме | HD Rips ·· Бтум! / Btooom! (Ватанабэ Котоно) [TV] [08 из 12] [без хардсаба] [RUS(ext), JAP+SUB] [2012 г., приключения, фантастика, драма, BDRip] [1080p] Polarnik 1434595305413.36 GB 0 0 1364891510

11:31

2-Апр-13

Аниме | Blu-Ray и BDRemux ·· Бтум! / Btooom! (Ватанабэ Котоно) [TV] [10 из 12] [без хардсаба] [JAP+SUB] [2012 г., приключения, фантастика, драма, BDRemux] [1080p] Polarnik 6841625339563.72 GB 0 0 1364848279

23:31

1-Апр-13

Аниме | HD Rips ·· Бтум! / Btooom! [TV] [01-12 из 12] [Без хардсаба] [RUS(int), JAP, SUB] [2012 г., приключения, HDTVRip] [720p] L 49802234034.64 GB 0 0 1364659878

19:11

30-Мар-13

Аниме | HD Rips ·· Бтум! / Btooom! (Ватанабэ Котоно) [TV] [без хардсаба] [01-12 из 12] [RUS(int),JAP] [2012 г., приключения, HDTVRip] [720p] L 48402651854.51 GB 0 0 1364659856

19:10

30-Мар-13

Аниме | HD Rips ·· Бтум! / Btooom! (Ватанабэ Котоно) [TV] [01-12 из 12] [Без хардсаба] [RUS(int),JAP+SUB] [2012 г., боевик, фантастика, сэйнэн, драма, приключение, HDTVRip] [720p] L 41190286643.84 GB 0 0 1364659849

19:10

30-Мар-13

Аниме | HD Rips ·· Бтум! / Btooom! (Ватанабэ Котоно) [TV] [без хардсаба] [12 из 12] [JAP+SUB, RUS(ext)] [2012 г., приключения, фантастика, HDTVRip] [720p] L 41023520163.82 GB 0 0 1364659837

19:10

30-Мар-13

Обои, артбуки и др. ·· Бтум! / Btooom! [Art] [2012 г.] [JPG,PNG] Polarnik 131688059126 MB 0 0 1355374920

08:02

13-Дек-12

Еще никто не оставлял запись к записи скачать торрент Бтум! Btooom! . Будь первым!

!Обратная связь