Скачать порно через торрент [18XGirls.com] Erica - Erica Gets Her Nice Tight Pussy Plowed On Top UnionPeer.org бесплатно онлайн HD качество

Скачать новое порно 2015, 2014 новинки через торрент UnionPeer.org

Порно торрент бесплатно ЮнионПир.орг

Если у вас наблюдаются проблемы со скриншотами, переходом по ссылками, скачиванием торрентов - проблемы в блокировщике рекламы AdBlock. #хорошегоДня!


Статистика раздачи
Размер:  877 MB   |    Зарегистрирован:  4 года 5 месяцев   |    .torrent скачан:  636 раз   |   
Раздают:  1  
   
Загрузка...
 
Автор Сообщение

LinGr

avatar LinGr


Erica - Erica Gets Her Nice Tight Pussy Plowed On Top
Год производства: 2013 г.
Подсайт и сайт: 18XGirls.com

Жанр: teen

Тип HD видео: 1080p


     
Format : Windows Media
File size : 877 MiB
Duration : 25mn 1s
Overall bit rate mode : Variable
Overall bit rate : 4 902 Kbps
Maximum Overall bit rate : 10.8 Mbps
Encoded date : UTC 2013-02-27 06:32:14.639
Encoded_With : Sorenson Squeeze

Video
ID : 31
Format : VC-1
Format profile : AP@L3
Codec ID : WVC1
Codec ID/Hint : Microsoft
Description of the codec : Windows Media Video 9 Advanced Profile
Duration : 25mn 1s
Bit rate mode : Variable
Bit rate : 4 750 Kbps
Width : 1 920 pixels
Height : 1 080 pixels
Display aspect ratio : 16:9
Frame rate : 23.976 fps
Chroma subsampling : 4:2:0
Bit depth : 8 bits
Scan type : Progressive
Compression mode : Lossy
Bits/(Pixel*Frame) : 0.096
Stream size : 850 MiB (97%)

Audio
ID : 1
Format : WMA
Format profile : Pro
Codec ID : 162
Codec ID/Info : Windows Media Audio
Description of the codec : Windows Media Audio 10 Professional - 128 kbps, 44 kHz, 2 channel 24 bit (A/V) 1-pass CBR
Duration : 25mn 1s
Bit rate mode : Constant
Bit rate : 128 Kbps
Channel(s) : 2 channels
Sampling rate : 44.1 KHz
Bit depth : 24 bits
Stream size : 22.9 MiB (3%)


Трекер:  [ 30-Апр-2013 18:41 ]

  

Скачать .torrent

Размер .torrent файла 17 KB


Размер: 877 MB
Хэш (hash) релиза: 348861f9784332c83136a26f3f4548dbd3dc3155

bot

Топик был перенесен в форум Видеоролики

Перенес Mahmud_1

Хотите добавить комментарий к записи скачать торрент [18XGirls.com] Erica - Erica Gets Her Nice Tight Pussy Plowed On Top

!Обратная связь