Скачать через торрент Эбитэн: Астрономический Клуб Старшей Школы Эбисугава Ebiten: Kouritsu Ebi Sugawa Koukou Tenmonbu бесплатно Аниме Все серии на русском torrent

Если у вас наблюдаются проблемы со скриншотами, переходом по ссылками, скачиванием торрентов - проблемы в блокировщике рекламы AdBlock. #хорошегоДня!


Статистика раздачи
Размер:  6.84 GB   |    Зарегистрирован:  4 года 4 месяца   |    .torrent скачан:  39 раз   |   
Раздают:  1  
   
Загрузка...
 
Автор Сообщение

Polarnik

avatar Polarnik



Год выпуска: 2012
Страна: Япония
Жанр: комедия
Продолжительность: 10 эп. по 25 мин.
Перевод:

русские субтитры от Gerale
Озвучка:

двухголосая (жен./жен.) от Nika_Lenina & Tinko (AniDub)
Режиссер: Окамото Хидэки
Студия: AIC
Описание:
Что обычно делает японский школьник, переведясь в новую школу? Правильно, вступает в какой-нибудь клуб. Ицуки Ноя любит астрономию. И ее почему-то не смущает тот факт, что клуб астрономии располагается... в подвале. А астрономией ли там занимаются?
© Говорящий попугай
Информационные ссылки: AniDB || World Art || MAL
Качество: BDRip
Энкод: Winter - RG Pantheon
Тип видео: без хардсаба
Формат: mkv
Видео: x264 (Hi10P), 1280x720, ~3200 Kbps, 23.976 fps
Аудио JAP: Vorbis, 48000Hz, ~256 Kbps, 2ch
Аудио RUS: AC3, 48000Hz, ~192 Kbps, 2ch
01. Be Reborn! The Astronomical Legend
02. Crybaby Hakata`s Stunning Transformation
03. From Confetti Candy with Love
04. Kokuin 2012
05. This Is the Astronomy Club of Miracles! A Maid Has Landed!
06. Aim for the Stars! The Girl Who Dreams of Love
07. Viva Astronomy
08. The Astronomy Club`s Special Endless Herb Pheromone
09. The Astronomy Club`s Great Victory! Ready, Go Towards Tomorrow!!
10. Beautiful Dreamers
Общее
Уникальный идентификатор : 201352983823874265274457928074061174954 (0x977B2C91697C2FFBA131D82619C058AA)
Полное имя : Z:\Anime\720p\Ebiten [BD] [720p]\[Winter] Ebiten 01 [BDrip 1280x720 x264 Vorbis].mkv
Формат : Matroska
Версия формата : Version 2
Размер файла : 589 Мбайт
Продолжительность : 24 м.
Режим общего битрейта : Переменный
Общий поток : 3333 Кбит/сек
Дата кодирования : UTC 2013-01-12 14:59:36
Программа кодирования : mkvmerge v2.9.8 (''C''est le bon'') built on Aug 13 2009 12:49:06
Библиотека кодирования : libebml v0.7.7 + libmatroska v0.8.1

Видео
Идентификатор : 1
Формат : AVC
Формат/Информация : Advanced Video Codec
Профиль формата : High 10@L4.1
Параметр CABAC формата : Да
Параметр ReFrames формата : 9 кадров
Идентификатор кодека : V_MPEG4/ISO/AVC
Продолжительность : 24 м.
Битрейт : 3011 Кбит/сек
Ширина : 1280 пикселей
Высота : 720 пикселей
Соотношение сторон : 16:9
Режим частоты кадров : Постоянный
Частота кадров : 23,976 кадра/сек
Цветовое пространство : YUV
Субдискретизация насыщенности : 4:2:0
Битовая глубина : 10 бит
Тип развёртки : Прогрессивная
Бит/(Пиксели*Кадры) : 0.136
Размер потока : 532 Мбайт (90%)
Библиотека кодирования : x264 core 129 r2230 1cffe9f
Настройки программы : cabac=1 / ref=9 / deblock=1:-2:-2 / analyse=0x3:0x133 / me=umh / subme=9 / psy=1 / psy_rd=0.90:0.00 / mixed_ref=1 / me_range=24 / chroma_me=1 / trellis=2 / 8x8dct=1 / cqm=0 / deadzone=21,11 / fast_pskip=1 / chroma_qp_offset=-2 / threads=6 / lookahead_threads=1 / sliced_threads=0 / nr=0 / decimate=0 / interlaced=0 / bluray_compat=0 / constrained_intra=0 / bframes=8 / b_pyramid=2 / b_adapt=2 / b_bias=0 / direct=1 / weightb=1 / open_gop=0 / weightp=2 / keyint=250 / keyint_min=23 / scenecut=40 / intra_refresh=0 / rc=crf / mbtree=0 / crf=15.7 / qcomp=0.70 / qpmin=9 / qpmax=40 / qpstep=4 / ip_ratio=1.40 / pb_ratio=1.30 / aq=1:0.90
Default : Нет
Forced : Нет

Аудио
Идентификатор : 2
Формат : Vorbis
Параметр Floor формата : 1
Идентификатор кодека : A_VORBIS
Продолжительность : 24 м.
Вид битрейта : Переменный
Битрейт : 256 Кбит/сек
Каналы : 2 канала
Частота : 48,0 КГц
Метод сжатия : С потерями
Размер потока : 45,2 Мбайт (8%)
Библиотека кодирования : libVorbis (Schaufenugget) (20101101 (Schaufenugget))
Язык : Japanese
Default : Да
Forced : Нет


Данный релиз предназначен для просмотра на ПК. Воспроизведение на иных проигрывателях не гарантируется. Для просмотра рекомендуется Media Player Classic с установленным пакетом кодеков K-Lite.

Данный релиз содержит 10-битное видео (Hi10p). Для корректного воспроизведения обязательно используйте кодеки, поддерживающие 10-битное видео.

Данный релиз предназначен для просмотра с внешними субтитрами и внешними звуковыми дорожками.

Для просмотра с внешней звуковой дорожкой нужно:
перекинуть файлы .mka из папки "RUS Sound [<автор(ы) озвучки>]" в одну папку с видео и переключить звуковую дорожку в плеере при просмотре.
Для просмотра с субтитрами нужно:
перекинуть файлы .ass из папки "RUS Subtitles [<автор(ы) перевода>]" в одну папку с видео - плеер подгрузит их автоматически при открытии видео.


Трекер:  [ 01-Май-2013 13:19 ]

  

Скачать .torrent

Размер .torrent файла 39 KB


Размер: 6.84 GB
Хэш (hash) релиза: 2e675901b821e836410da687f414cdf5c98490c5
Подписка на обновления:

Торренты, похожие на Эбитэн: Астрономический Клуб Старшей Школы Эбисугава Ebiten: Kouritsu Ebi Sugawa Koukou Tenmonbu скачать торрент

Форум Название Автор Размер S L Добавлен
Аниме | Rips ·· Эбитэн: Астрономический Клуб Старшей Школы Эбисугава / Ebiten: Kouritsu Ebi Sugawa Koukou Tenmonbu [ONA+Special] [без хардсаба] [10+5 из 10+5] [JAP+SUB] & [10+0 из 10+5] [RUS(int)] [2012 г., комедия, пародия, BDRip] Polarnik 24916243212.32 GB 0 0 1385672326

23:58

28-Ноя-13

Аниме | HD Rips ·· Эбитэн: Астрономический Клуб Старшей Школы Эбисугава / Ebiten: Kouritsu Ebi Sugawa Koukou Tenmonbu (Окамото Хидэки) [ONA+Special] [без хардсаба] [10+5 из 10+5] [JAP+SUB] & [10+0 из 10+5] [RUS(ext)] [2012 г., комедия, BDRip] [720p] Polarnik 75275582217.01 GB 0 0 1372451917

23:38

28-Июн-13

Аниме | HD Rips ·· Эбитэн: Астрономический Клуб Старшей Школы Эбисугава / Ebiten: Kouritsu Ebi Sugawa Koukou Tenmonbu (Окамото Хидэки) [ONA+Special] [без хардсаба] [10+5 из 10+5] [JAP+SUB] & [5+0 из 10+5] [RUS(ext)] [2012 г., комедия, BDRip] [1080p] Polarnik 2952321189027.5 GB 0 0 1367659652

12:27

4-Май-13

Аниме | HD Rips ·· Эбитэн: Астрономический Клуб Старшей Школы Эбисугава / Ebiten: Kouritsu Ebi Sugawa Koukou Tenmonbu (Окамото Хидэки) [ONA] [без хардсаба] [1 из 10] [JAP+SUB] & [4 из 10] [RUS(ext)] [2012 г., комедия, BDRip] [720p] Galfimbul 28507992402.66 GB 0 0 1359983640

16:14

4-Фев-13

Еще никто не оставлял запись к записи скачать торрент Эбитэн: Астрономический Клуб Старшей Школы Эбисугава Ebiten: Kouritsu Ebi Sugawa Koukou Tenmonbu . Будь первым!

!Обратная связь