Скачать порно через торрент Brazzers Fans Choice 200th Выбор фанатов Brazzers 200-e Юбилейное издание UnionPeer.org бесплатно онлайн HD качество

Скачать новое порно 2015, 2014 новинки через торрент UnionPeer.org

Порно торрент бесплатно ЮнионПир.орг

Если у вас наблюдаются проблемы со скриншотами, переходом по ссылками, скачиванием торрентов - проблемы в блокировщике рекламы AdBlock. #хорошегоДня!


Статистика раздачи
Размер:  21.21 GB   |    Зарегистрирован:  4 года 6 месяцев   |    .torrent скачан:  76 раз   |   
Раздают:  1  
   
Загрузка...
 
Автор Сообщение

LinGr

avatar LinGr


Brazzer's Fan's Choice 200th
Выбор фанатов Brazzer's 200-e Юбилейное издание

Год производства: 2012 г.
Страна: USA
Продолжительность: 04:06:13

Студия: Brazzer's

Язык: Английский
В ролях: Lisa Ann, Jessica Jaymes, Jayden Jaymes, Rachel Starr, Phoenix Marie, Asa Akira, Kagney Linn Karter, Christy Mack, Ramon Nomar, Johnny Sins, Kieran Lee, Xander Corvus...

Описание: Описание: 200th DVD 7 Scenes with 8 girls voted on by the fans! Scenes Include Mom's Guide To Throwing A Party Lisa Ann is your guide on how to throw a successful party. Witness her luring Kieran Lee's Ginormous cock in her vaginal abyss for a festive fuck of which neither party will soon forget! Casual Friday Jayden just got the job of her dreams. When her boss tells her to wear whatever she wants for casual Friday, she takes it a bit too literally. What's a boss to do? Sexy time at the office. Out Of The Biz After doing several back to back shoots, Christy just wants to relax and take a break, but her agent, Johnny Sins might have to convince her to stay...with his dick! The Boss's Wife Ramon a faithful soldier, knows what's coming next after his boss leaves Kagney in his care. It's only a matter of time though! Take Up Thy Stethoscope And Fuck Jessica is a clumsy shy doctor with a hidden horny side. When Xander comes in for a regular check up, he has no problem getting fully naked without being asked to! Sexual Harassment In The Work Place While showing Mrs. Starr how he is being touched, co-worker Phoenix Marie walks in unexpectedly. They show VooDoo what sexual harassment in the work place really is! Boning My Boss Johnny has been trying to climb the ranks in the company for years. He is going to try something a little different today to convince Asa that he deserves a big promotion!

Доп. материалы и бонусы:
Interactive Menus
Chapter Selections
Web Site Information

Тип HD видео: 1080i
Качество видео: Blu-Ray
Контейнер: ISO
Видео: MPEG-4 AVC Video / 10000 kbps / 1080i / 29,970 fps / 16:9 / High Profile 4.1
Аудио: Dolby Digital Audio / 2.0 / 48 kHz / 192 kbps / DN -4dB

Семпл - 30 сек (50 МБ) ЯндексДиск


         
 
X:\BDMV\STREAM\00002.m2ts

General #0
ID : 0 (0x0)
Complete name : X:\BDMV\STREAM\00002.m2ts
Format : BDAV
Format/Info : Blu-ray Video
File size : 18.5 GiB
Duration : 4h 6mn
Overall bit rate mode : Variable
Overall bit rate : 10.8 Mbps
Maximum Overall bit rate : 48.0 Mbps

Video #4113
ID : 4113 (0x1011)
Menu ID : 1 (0x1)
Format : AVC
Format/Info : Advanced Video Codec
Format profile : High@L4.1
Format settings, CABAC : Yes
Format settings, ReFrames : 3 frames
Format settings, GOP : M=3, N=15
Codec ID : 27
Duration : 4h 6mn
Bit rate mode : Variable
Bit rate : 10.1 Mbps
Maximum bit rate : 15.0 Mbps
Width : 1 920 pixels
Height : 1 080 pixels
Display aspect ratio : 16:9
Frame rate : 29.970 fps
Standard : NTSC
Color space : YUV
Chroma subsampling : 4:2:0
Bit depth : 8 bits
Scan type : MBAFF
Bits/(Pixel*Frame) : 0.163
Stream size : 17.4 GiB (94%)
Color primaries : BT.709
Transfer characteristics : BT.709
Matrix coefficients : BT.709

Audio #4352
ID : 4352 (0x1100)
Menu ID : 1 (0x1)
Format : AC-3
Format/Info : Audio Coding 3
Mode extension : CM (complete main)
Format settings, Endianness : Big
Codec ID : 129
Duration : 4h 6mn
Bit rate mode : Constant
Bit rate : 192 Kbps
Channel(s) : 2 channels
Channel positions : Front: L R
Sampling rate : 48.0 KHz
Bit depth : 16 bits
Compression mode : Lossy
Stream size : 338 MiB (2%)
DISC INFO:

Disc Title: FANS_CHOICE_200TH_BD
Disc Size: 22 767 939 928 bytes
Protection: AACS
BD-Java: No
BDInfo: 0.5.8

PLAYLIST REPORT:

Name: 00002.MPLS
Length: 4:06:13.759 (h:m:s.ms)
Size: 19 859 395 008 bytes
Total Bitrate: 10,75 Mbps

VIDEO:

Codec Bitrate Description
----- ------- -----------
MPEG-4 AVC Video 10000 kbps 1080i / 29,970 fps / 16:9 / High Profile 4.1

AUDIO:

Codec Language Bitrate Description
----- -------- ------- -----------
Dolby Digital Audio English 192 kbps 2.0 / 48 kHz / 192 kbps / DN -4dB

QUICK SUMMARY:

Disc Title: FANS_CHOICE_200TH_BD
Disc Size: 22 767 939 928 bytes
Protection: AACS
BD-Java: No
Playlist: 00002.MPLS
Size: 19 859 395 008 bytes
Length: 4:06:13.759
Total Bitrate: 10,75 Mbps
Video: MPEG-4 AVC Video / 10000 kbps / 1080i / 29,970 fps / 16:9 / High Profile 4.1
Audio: English / Dolby Digital Audio / 2.0 / 48 kHz / 192 kbps / DN -4dB


Трекер:  [ 25-Апр-2013 00:03 ]

  

Скачать .torrent

Размер .torrent файла 53 KB


Размер: 21.21 GB
Хэш (hash) релиза: bd576b93a509315db72290174f1b79ba78284be7

bot

Топик был перенесен в форум Гонзо-фильмы

Перенес Mahmud_1

Хотите добавить комментарий к записи скачать торрент Brazzers Fans Choice 200th Выбор фанатов Brazzers 200-e Юбилейное издание

!Обратная связь