Скачать порно через торрент Сисястая подруга UnionPeer.org бесплатно онлайн HD качество

Скачать новое порно 2015, 2014 новинки через торрент UnionPeer.org

Порно торрент бесплатно ЮнионПир.орг

Если у вас наблюдаются проблемы со скриншотами, переходом по ссылками, скачиванием торрентов - проблемы в блокировщике рекламы AdBlock. #хорошегоДня!


Статистика раздачи
Размер:  653 MB   |    Зарегистрирован:  4 года 5 месяцев   |    .torrent скачан:  1548 раз   |   
Раздают:  1  
   
Загрузка...
 
Автор Сообщение

LinGr

avatar LinGr


Сисястая подруга (мини-пак)
Год производства: 2011 г.
Жанр: Big tits, Blowjob, Doggystyle, Creampie, Masturbation, Cum shots
Продолжительность: общая 00:36:53

Описание: По многочисленным просьбам "трудящихся" выкладываю пак с этой великолепной девушкой

Качество видео: CamRip
Формат видео: AVI и MOV
             
Домашний Cream Pie.mov
Формат : MPEG-4
Профиль формата : QuickTime
Идентификатор кодека : qt
Размер файла : 84,9 Мбайт
Продолжительность : 4 м. 23 с.
Режим общего битрейта : Переменный
Общий поток : 2699 Кбит/сек
Программа кодирования : Lavf50.6.0
Примечание : QuickTime 6.0 or greater

Видео
Идентификатор : 1
Формат : AVC
Формат/Информация : Advanced Video Codec
Профиль формата : Baseline@L5.1
Параметр CABAC формата : Нет
Параметр ReFrames формата : 1 кадр
Параметр GOP формата : M=1, N=12
Идентификатор кодека : avc1
Идентификатор кодека/Информация : Advanced Video Coding
Продолжительность : 4 м. 23 с.
Битрейт : 2567 Кбит/сек
Ширина : 512 пикселей
Высота : 288 пикселей
Соотношение сторон : 16:9
Режим частоты кадров : Постоянный
Частота кадров : 25,000 кадров/сек
Цветовое пространство : YUV
Субдискретизация насыщенности : 4:2:0
Битовая глубина : 8 бит
Тип развёртки : Прогрессивная
Бит/(Пиксели*Кадры) : 0.696
Размер потока : 80,7 Мбайт (95%)
Язык : English

Аудио
Идентификатор : 2
Формат : AAC
Формат/Информация : Advanced Audio Codec
Профиль формата : LC
Идентификатор кодека : 40
Продолжительность : 4 м. 23 с.
Вид битрейта : Переменный
Битрейт : 128 Кбит/сек
Каналы : 2 канала
Расположение каналов : Front: L R
Частота : 48,0 КГц
Метод сжатия : С потерями
Размер потока : 4,02 Мбайт (5%)
Язык : English
Кончил на подругу.avi
Формат : AVI
Формат/Информация : Audio Video Interleave
Размер файла : 58,6 Мбайт
Продолжительность : 3 м. 0 с.
Общий поток : 2729 Кбит/сек
Программа кодирования : Lavf50.6.0

Видео
Идентификатор : 0
Формат : AVC
Формат/Информация : Advanced Video Codec
Профиль формата : Baseline@L5.1
Параметр CABAC формата : Нет
Параметр ReFrames формата : 1 кадр
Параметр GOP формата : M=1, N=12
Идентификатор кодека : H264
Продолжительность : 3 м. 0 с.
Битрейт : 2496 Кбит/сек
Ширина : 512 пикселей
Высота : 384 пикселя
Соотношение сторон : 4:3
Частота кадров : 25,000 кадров/сек
Цветовое пространство : YUV
Субдискретизация насыщенности : 4:2:0
Битовая глубина : 8 бит
Тип развёртки : Прогрессивная
Бит/(Пиксели*Кадры) : 0.508
Размер потока : 55,6 Мбайт (95%)
Библиотека кодирования : x264 core 54
Настройки программы : cabac=0 / ref=1 / deblock=0:0:0 / analyse=0x1:0 / me=dia / subme=7 / brdo=0 / mixed_ref=0 / me_range=4 / chroma_me=0 / trellis=0 / 8x8dct=0 / cqm=0 / deadzone=21,11 / chroma_qp_offset=0 / slices=1 / nr=0 / decimate=1 / mbaff=0 / bframes=0 / keyint=12 / keyint_min=7 / scenecut=0 / rc=abr / bitrate=2496 / ratetol=1.6 / rceq='tex^qComp' / qcomp=0.50 / qpmin=2 / qpmax=31 / qpstep=3 / ip_ratio=1.25

Аудио
Идентификатор : 1
Формат : MPEG Audio
Версия формата : Version 1
Профиль формата : Layer 3
Режим : Joint stereo
Расширение режима : MS Stereo
Идентификатор кодека : 55
Идентификатор кодека/Подсказка : MP3
Продолжительность : 3 м. 0 с.
Вид битрейта : Постоянный
Битрейт : 128 Кбит/сек
Каналы : 2 канала
Частота : 44,1 КГц
Метод сжатия : С потерями
Размер потока : 2,75 Мбайт (5%)
Выравнивание : Соединение по промежуткам
Продолжительность промежутка : 26 мс. (0,65 видеокадр)
Библиотека кодирования : LAME3.98 (alpha)
Налил спермы в кратер.avi
Формат : AVI
Формат/Информация : Audio Video Interleave
Размер файла : 84,1 Мбайт
Продолжительность : 4 м. 18 с.
Общий поток : 2732 Кбит/сек
Программа кодирования : Lavf50.6.0

Видео
Идентификатор : 0
Формат : AVC
Формат/Информация : Advanced Video Codec
Профиль формата : Baseline@L5.1
Параметр CABAC формата : Нет
Параметр ReFrames формата : 1 кадр
Параметр GOP формата : M=1, N=12
Идентификатор кодека : H264
Продолжительность : 4 м. 18 с.
Битрейт : 2496 Кбит/сек
Ширина : 512 пикселей
Высота : 288 пикселей
Соотношение сторон : 16:9
Частота кадров : 25,000 кадров/сек
Цветовое пространство : YUV
Субдискретизация насыщенности : 4:2:0
Битовая глубина : 8 бит
Тип развёртки : Прогрессивная
Бит/(Пиксели*Кадры) : 0.677
Размер потока : 79,7 Мбайт (95%)
Библиотека кодирования : x264 core 54
Настройки программы : cabac=0 / ref=1 / deblock=0:0:0 / analyse=0x1:0 / me=dia / subme=7 / brdo=0 / mixed_ref=0 / me_range=4 / chroma_me=0 / trellis=0 / 8x8dct=0 / cqm=0 / deadzone=21,11 / chroma_qp_offset=0 / slices=1 / nr=0 / decimate=1 / mbaff=0 / bframes=0 / keyint=12 / keyint_min=7 / scenecut=0 / rc=abr / bitrate=2496 / ratetol=1.6 / rceq='tex^qComp' / qcomp=0.50 / qpmin=2 / qpmax=31 / qpstep=3 / ip_ratio=1.25

Аудио
Идентификатор : 1
Формат : MPEG Audio
Версия формата : Version 1
Профиль формата : Layer 3
Режим : Joint stereo
Расширение режима : MS Stereo
Идентификатор кодека : 55
Идентификатор кодека/Подсказка : MP3
Продолжительность : 4 м. 18 с.
Вид битрейта : Постоянный
Битрейт : 128 Кбит/сек
Каналы : 2 канала
Частота : 44,1 КГц
Метод сжатия : С потерями
Размер потока : 3,94 Мбайт (5%)
Выравнивание : Соединение по промежуткам
Продолжительность промежутка : 26 мс. (0,65 видеокадр)
Библиотека кодирования : LAME3.98 (alpha)
Полировка шляпы.avi
Формат : AVI
Формат/Информация : Audio Video Interleave
Размер файла : 58,8 Мбайт
Продолжительность : 3 м. 0 с.
Общий поток : 2732 Кбит/сек
Программа кодирования : Lavf50.6.0

Видео
Идентификатор : 0
Формат : AVC
Формат/Информация : Advanced Video Codec
Профиль формата : Baseline@L5.1
Параметр CABAC формата : Нет
Параметр ReFrames формата : 1 кадр
Параметр GOP формата : M=1, N=12
Идентификатор кодека : H264
Продолжительность : 3 м. 0 с.
Битрейт : 2496 Кбит/сек
Ширина : 512 пикселей
Высота : 342 пикселя
Соотношение сторон : 3:2
Частота кадров : 25,000 кадров/сек
Цветовое пространство : YUV
Субдискретизация насыщенности : 4:2:0
Битовая глубина : 8 бит
Тип развёртки : Прогрессивная
Бит/(Пиксели*Кадры) : 0.570
Размер потока : 55,8 Мбайт (95%)
Библиотека кодирования : x264 core 54
Настройки программы : cabac=0 / ref=1 / deblock=0:0:0 / analyse=0x1:0 / me=dia / subme=7 / brdo=0 / mixed_ref=0 / me_range=4 / chroma_me=0 / trellis=0 / 8x8dct=0 / cqm=0 / deadzone=21,11 / chroma_qp_offset=0 / slices=1 / nr=0 / decimate=1 / mbaff=0 / bframes=0 / keyint=12 / keyint_min=7 / scenecut=0 / rc=abr / bitrate=2496 / ratetol=1.6 / rceq='tex^qComp' / qcomp=0.50 / qpmin=2 / qpmax=31 / qpstep=3 / ip_ratio=1.25

Аудио
Идентификатор : 1
Формат : MPEG Audio
Версия формата : Version 1
Профиль формата : Layer 3
Режим : Joint stereo
Расширение режима : MS Stereo
Идентификатор кодека : 55
Идентификатор кодека/Подсказка : MP3
Продолжительность : 3 м. 0 с.
Вид битрейта : Постоянный
Битрейт : 128 Кбит/сек
Каналы : 2 канала
Частота : 44,1 КГц
Метод сжатия : С потерями
Размер потока : 2,76 Мбайт (5%)
Выравнивание : Соединение по промежуткам
Продолжительность промежутка : 26 мс. (0,65 видеокадр)
Библиотека кодирования : LAME3.98 (alpha)
Пососала и дала.avi
Формат : AVI
Формат/Информация : Audio Video Interleave
Размер файла : 73,6 Мбайт
Продолжительность : 8 м. 44 с.
Общий поток : 1177 Кбит/сек
Программа кодирования : Lavf50.6.0

Видео
Идентификатор : 0
Формат : MPEG-4 Visual
Идентификатор кодека : DIV3
Идентификатор кодека/Подсказка : DivX 3 Low
Продолжительность : 8 м. 44 с.
Битрейт : 1036 Кбит/сек
Ширина : 512 пикселей
Высота : 288 пикселей
Соотношение сторон : 16:9
Частота кадров : 25,000 кадров/сек
Цветовое пространство : YUV
Субдискретизация насыщенности : 4:2:0
Битовая глубина : 8 бит
Метод сжатия : С потерями
Бит/(Пиксели*Кадры) : 0.281
Размер потока : 64,8 Мбайт (88%)

Аудио
Идентификатор : 1
Формат : MPEG Audio
Версия формата : Version 1
Профиль формата : Layer 3
Режим : Joint stereo
Расширение режима : MS Stereo
Идентификатор кодека : 55
Идентификатор кодека/Подсказка : MP3
Продолжительность : 8 м. 44 с.
Вид битрейта : Постоянный
Битрейт : 128 Кбит/сек
Каналы : 2 канала
Частота : 44,1 КГц
Метод сжатия : С потерями
Размер потока : 8,00 Мбайт (11%)
Выравнивание : Соединение по промежуткам
Продолжительность промежутка : 26 мс. (0,65 видеокадр)
Библиотека кодирования : LAME3.98 (alpha)
Пустил струю под глазик.avi
Формат : AVI
Формат/Информация : Audio Video Interleave
Размер файла : 114 Мбайт
Продолжительность : 5 м. 52 с.
Общий поток : 2710 Кбит/сек
Программа кодирования : Lavf50.6.0

Видео
Идентификатор : 0
Формат : AVC
Формат/Информация : Advanced Video Codec
Профиль формата : Baseline@L5.1
Параметр CABAC формата : Нет
Параметр ReFrames формата : 1 кадр
Параметр GOP формата : M=1, N=12
Идентификатор кодека : H264
Продолжительность : 5 м. 51 с.
Битрейт : 2496 Кбит/сек
Ширина : 512 пикселей
Высота : 384 пикселя
Соотношение сторон : 4:3
Частота кадров : 25,000 кадров/сек
Цветовое пространство : YUV
Субдискретизация насыщенности : 4:2:0
Битовая глубина : 8 бит
Тип развёртки : Прогрессивная
Бит/(Пиксели*Кадры) : 0.508
Размер потока : 109 Мбайт (96%)
Библиотека кодирования : x264 core 54
Настройки программы : cabac=0 / ref=1 / deblock=0:0:0 / analyse=0x1:0 / me=dia / subme=7 / brdo=0 / mixed_ref=0 / me_range=4 / chroma_me=0 / trellis=0 / 8x8dct=0 / cqm=0 / deadzone=21,11 / chroma_qp_offset=0 / slices=1 / nr=0 / decimate=1 / mbaff=0 / bframes=0 / keyint=12 / keyint_min=7 / scenecut=0 / rc=abr / bitrate=2496 / ratetol=1.6 / rceq='tex^qComp' / qcomp=0.50 / qpmin=2 / qpmax=31 / qpstep=3 / ip_ratio=1.25

Аудио
Идентификатор : 1
Формат : MPEG Audio
Версия формата : Version 1
Профиль формата : Layer 3
Режим : Joint stereo
Расширение режима : MS Stereo
Идентификатор кодека : 55
Идентификатор кодека/Подсказка : MP3
Продолжительность : 5 м. 52 с.
Вид битрейта : Постоянный
Битрейт : 96,0 Кбит/сек
Каналы : 2 канала
Частота : 44,1 КГц
Метод сжатия : С потерями
Размер потока : 4,03 Мбайт (4%)
Выравнивание : Соединение по промежуткам
Продолжительность промежутка : 26 мс. (0,65 видеокадр)
Библиотека кодирования : LAME3.98 (alpha)
Слил сперму на широко распахнутую киску.avi
Формат : AVI
Формат/Информация : Audio Video Interleave
Размер файла : 117 Мбайт
Продолжительность : 6 м. 1 с.
Общий поток : 2712 Кбит/сек
Программа кодирования : Lavf50.6.0

Видео
Идентификатор : 0
Формат : AVC
Формат/Информация : Advanced Video Codec
Профиль формата : Baseline@L5.1
Параметр CABAC формата : Нет
Параметр ReFrames формата : 1 кадр
Параметр GOP формата : M=1, N=12
Идентификатор кодека : H264
Продолжительность : 6 м. 1 с.
Битрейт : 2496 Кбит/сек
Ширина : 512 пикселей
Высота : 288 пикселей
Соотношение сторон : 16:9
Частота кадров : 25,000 кадров/сек
Цветовое пространство : YUV
Субдискретизация насыщенности : 4:2:0
Битовая глубина : 8 бит
Тип развёртки : Прогрессивная
Бит/(Пиксели*Кадры) : 0.677
Размер потока : 111 Мбайт (95%)
Библиотека кодирования : x264 core 54
Настройки программы : cabac=0 / ref=1 / deblock=0:0:0 / analyse=0x1:0 / me=dia / subme=7 / brdo=0 / mixed_ref=0 / me_range=4 / chroma_me=0 / trellis=0 / 8x8dct=0 / cqm=0 / deadzone=21,11 / chroma_qp_offset=0 / slices=1 / nr=0 / decimate=1 / mbaff=0 / bframes=0 / keyint=12 / keyint_min=7 / scenecut=0 / rc=abr / bitrate=2496 / ratetol=1.6 / rceq='tex^qComp' / qcomp=0.50 / qpmin=2 / qpmax=31 / qpstep=3 / ip_ratio=1.25

Аудио
Идентификатор : 1
Формат : MPEG Audio
Версия формата : Version 1
Профиль формата : Layer 3
Режим : Joint stereo
Расширение режима : MS Stereo
Идентификатор кодека : 55
Идентификатор кодека/Подсказка : MP3
Продолжительность : 6 м. 1 с.
Вид битрейта : Постоянный
Битрейт : 128 Кбит/сек
Каналы : 2 канала
Частота : 44,1 КГц
Метод сжатия : С потерями
Размер потока : 5,51 Мбайт (5%)
Выравнивание : Соединение по промежуткам
Продолжительность промежутка : 26 мс. (0,65 видеокадр)
Библиотека кодирования : LAME3.98 (alpha)
Спустил на раскрытую киску.mov
Формат : MPEG-4
Профиль формата : QuickTime
Идентификатор кодека : qt
Размер файла : 60,2 Мбайт
Продолжительность : 2 м. 15 с.
Режим общего битрейта : Переменный
Общий поток : 3731 Кбит/сек
Программа кодирования : Lavf50.6.0
Примечание : QuickTime 6.0 or greater

Видео
Идентификатор : 1
Формат : AVC
Формат/Информация : Advanced Video Codec
Профиль формата : Baseline@L5.1
Параметр CABAC формата : Нет
Параметр ReFrames формата : 1 кадр
Параметр GOP формата : M=1, N=12
Идентификатор кодека : avc1
Идентификатор кодека/Информация : Advanced Video Coding
Продолжительность : 2 м. 15 с.
Битрейт : 3577 Кбит/сек
Ширина : 512 пикселей
Высота : 288 пикселей
Соотношение сторон : 16:9
Режим частоты кадров : Постоянный
Частота кадров : 25,000 кадров/сек
Цветовое пространство : YUV
Субдискретизация насыщенности : 4:2:0
Битовая глубина : 8 бит
Тип развёртки : Прогрессивная
Бит/(Пиксели*Кадры) : 0.970
Размер потока : 57,7 Мбайт (96%)
Язык : English

Аудио
Идентификатор : 2
Формат : AAC
Формат/Информация : Advanced Audio Codec
Профиль формата : LC
Идентификатор кодека : 40
Продолжительность : 2 м. 15 с.
Вид битрейта : Переменный
Битрейт : 150 Кбит/сек
Каналы : 2 канала
Расположение каналов : Front: L R
Частота : 48,0 КГц
Метод сжатия : С потерями
Размер потока : 2,42 Мбайт (4%)
Язык : English


Трекер:  [ 20-Апр-2013 20:14 ]

  

Скачать .torrent

Размер .torrent файла 14 KB


Размер: 653 MB
Хэш (hash) релиза: 8e22b80aec69bf05b78e6ae6de62a8a234930cb4

Торренты, похожие на Сисястая подруга скачать торрент

Форум Название Автор Размер S L Добавлен
Русское любительское видео ·· Сисястая подруга ублажила приятеля ротиком [2017 г., HomeMade, Russian, Blowjob, HD 720p] Weeknd 7022345667 MB 1 1 1485778129

15:08

30-Янв-17

Русское любительское видео ·· [bongacams] Блат мужик "жарит" свою сисястую подругу на бонге [2015 г., Sex, Oral, Suck, Big Tits, Mom, Solo, CamRip] Galfimbul 11965584291.11 GB 2 0 1453877111

09:45

27-Янв-16

Русское любительское видео ·· анал с сисястой подругой в сауне [CamRip/ 2014 г., Sauna, Blonde, Hairy Pussy, Natural Tits, Big Tits, Big Ass, Oral, All Sex, Anal, Cum In Ass, POV, Talking] Galfimbul 9311560689 MB 0 0 1423665196

17:33

11-Фев-15

Сайтрипы до 2011 ·· [BabyGotBoobs.com / BraZZers.com] Candice Nicole (Put-Out or Get-Out / 4572) Сисястая подруга уводит парня [2010 г., Big tits, Facial, Interracial] Galfimbul 566038326540 MB 0 0 1383901703

12:08

8-Ноя-13

Русское любительское видео ·· Сисястая подруга (Часть 4) [2011 г., Home, SiteRip] damien1990 6892339266 MB 0 0 1382641881

22:11

24-Окт-13

Порноролики ·· Luna C Kitsuen (сцена из"Morning Wood 2") / Похмельным утром порадовал сисястую подругу. [2013 г., All Sex, Oral, BigTits] damien1990 417689861398 MB 2 0 1382198874

19:07

19-Окт-13

Русское любительское видео ·· Домашний Cream Pie (или продолжение с Сисястой подругой) [2011 г., Big tits, Doggystyle, Creampie, CamRip] Galfimbul 8899608385 MB 0 0 1379307600

08:00

16-Сен-13

Русское любительское видео ·· Спустил на раскрытую киску (продолжение с Сисястой подругой) [2011 г., Big tits, Masturbation, Cum shots, CamRip] Galfimbul 6310365160 MB 0 0 1379306985

07:49

16-Сен-13

Русское любительское видео ·· Пососала и дала (продолжение с сисястой подругой) [2011 г., CamRip] Galfimbul 6845174265 MB 0 0 1379304459

07:07

16-Сен-13

Русское любительское видео ·· Жестко отодрал свою молодую и сисястую подругу [amateur, teens, oral, all sex, CamRip] Galfimbul 270362628258 MB 0 0 1371303879

16:44

15-Июн-13

Японские порно фильмы ·· Nao Tachibana, Kyoko Takashima, Miu (Miwa) Nishiki - 3 Big Breasted Girls / 3 Сисястые Подруги [ETC-40] (GLORY QUEST) [cen] [2010 г., Asian, Big Tits, All Sex, DVDRip] Galfimbul 13057419581.22 GB 0 0 1360954745

21:59

15-Фев-13

Японские порно фильмы ·· [CENSORED] Shiori Kanzaki - Beauty Big Breasts Girlfriend / Красивая Сисястая Подруга [MILD-711] (KMP / Million) [2011 г., Asian, Big Tits, All Sex, DVD5] Galfimbul 43158592494.02 GB 0 0 1360672308

15:31

12-Фев-13

Сайтрипы 2012 ·· Новое видео от "Сисястой подруги" [2012 г., Big tits, Ass-Butts, Doggystyle, Cum shots, 1080p] Galfimbul 201438445192 MB 2 0 1354999860

23:51

8-Дек-12

Сайтрипы 2011 ·· Сисястая подруга (ОРИГИНАЛ) [2011 г., Big tits, Masturbation, Blowjob, Cum shots, 1080p] Galfimbul 443664943423 MB 0 0 1354782480

11:28

6-Дек-12

Паки порнороликов по актрисам ·· Milly Moris (12 клипов) / Сисястая подруга [2009 г., BIG TITS, DVDRip] Galfimbul 27095609782.52 GB 0 0 1317537807

09:43

2-Окт-11

Сайтрипы до 2011 ·· [MySistersHotFriend.com / NaughtyAmerica.com] Tarra White / Сисястая блондинка соблазняет брата подруги [2010 г., Ass licking, Big Dick, Big Tits, Blonde] Galfimbul 581866733555 MB 0 0 1383920793

17:26

8-Ноя-13

Еще никто не оставлял запись к записи скачать торрент Сисястая подруга . Будь первым!

!Обратная связь