Скачать через торрент музыку Зловещие мертвецы: Черная книга Evil Dead бесплатно без регистрации torrent

Если у вас наблюдаются проблемы со скриншотами, переходом по ссылками, скачиванием торрентов - проблемы в блокировщике рекламы AdBlock. #хорошегоДня!


Статистика раздачи
Размер:  376 MB   |    Зарегистрирован:  4 года 4 месяца   |    .torrent скачан:  17 раз   |   
Раздают:  1  
   
Загрузка...
 
Автор Сообщение

Galfimbul

avatar Galfimbul


Зловещие мертвецы: Черная книга / Evil Dead


Жанр: Score || Композитор: Roque Banos || Год выпуска диска: 2013 || Страна-производитель диска: США || Аудио кодек: FLAC (*.flac) || Тип рипа: tracks+.cue || Битрейт аудио: lossless || Продолжительность: 01:11:33 || Источник: What.cd || Наличие сканов в содержимом раздачи: да
Треклист:
01. I''ll Rip Your Soul Out [04:52]
02. Sad Memories [05:24]
03. Don''t Say It, Don''t Write It, Don''t Hear It [04:44]
04. Demon Possession (extended) [04:22]
05. Get Me Out Of Here [05:26]
06. She Tried To Kill Me [02:32]
07. He Won''t Let You Out [02:47]
08. Bloody Kiss [02:24]
09. Three Ways Of Saving Her Soul [04:04]
10. Natalie Hunting [05:37]
11. I''ll Do What I Gotta Do (extended) [08:44]
12. Come Back To Me [03:04]
13. He''s Coming [03:24]
14. Abominations Rising [07:00]
15. The Pendant / Evil Tango [03:24]
16. The Evil Dead Main Theme [01:45]
17. Come Back To Me (alternate) [02:01]
Exact Audio Copy V1.0 beta 3 from 29. August 2011

EAC extraction logfile from 16. April 2013, 19:36

Roque Banos / Evil Dead

Used drive : HL-DT-STBD-RE BH10LS38 Adapter: 1 ID: 0

Read mode : SecureUtilize accurate stream : YesDefeat audio cache : YesMake use of C2 pointers : No

Read offset correction : 667Overread into Lead-In and Lead-Out : NoFill up missing offset samples with silence : YesDelete leading and trailing silent blocks : NoNull samples used in CRC calculations : YesUsed interface : Native Win32 interface for Win NT & 2000Gap handling : Appended to previous track

Used output format : User Defined EncoderSelected bitrate : 768 kBit/sQuality : HighAdd ID3 tag : NoCommand line compressor : C:\Program Files (x86)\Exact Audio Copy\FLAC\FLAC.EXEAdditional command line options : -8 -V -T "ARTIST=%artist%" -T "TITLE=%title%" -T "ALBUM=%albumtitle%" -T "DATE=%year%" -T "TRACKNUMBER=%tracknr%" -T "GENRE=%genre%" -T "PERFORMER=%albuminterpret%" -T "COMPOSER=%composer%" %haslyrics%--tag-from-file=LYRICS="%lyricsfile%"%haslyrics% -T "ALBUMARTIST=%albumartist%" -T "ALBUM ARTIST=%albumartist%" -T "DISCNUMBER=%cdnumber%" -T "TOTALDISCS=%totalcds%" -T "TOTALTRACKS=%numtracks%" -T "COMMENT=%comment%" %source% -o %dest%

TOC of the extracted CD

Track | Start | Length | Start sector | End sector --------------------------------------------------------- 1 | 0:00.00 | 4:52.16 | 0 | 21915 2 | 4:52.16 | 5:24.19 | 21916 | 46234 3 | 10:16.35 | 4:44.19 | 46235 | 67553 4 | 15:00.54 | 4:22.13 | 67554 | 87216 5 | 19:22.67 | 5:25.51 | 87217 | 111642 6 | 24:48.43 | 2:31.40 | 111643 | 123007 7 | 27:20.08 | 2:46.64 | 123008 | 135521 8 | 30:06.72 | 2:24.07 | 135522 | 146328 9 | 32:31.04 | 4:04.08 | 146329 | 164636 10 | 36:35.12 | 5:37.07 | 164637 | 189918 11 | 42:12.19 | 8:43.71 | 189919 | 229214 12 | 50:56.15 | 3:04.06 | 229215 | 243020 13 | 54:00.21 | 3:23.74 | 243021 | 258319 14 | 57:24.20 | 7:00.19 | 258320 | 289838 15 | 64:24.39 | 3:23.43 | 289839 | 305106 16 | 67:48.07 | 1:44.42 | 305107 | 312948 17 | 69:32.49 | 2:00.55 | 312949 | 322003

Track 1

Filename C:\Users\chris\Desktop\Rips\01 - I''ll Rip Your Soul Out.wav

Pre-gap length 0:00:02.00

Peak level 96.6 % Extraction speed 1.3 X Track quality 100.0 % Test CRC A3409FB4 Copy CRC A3409FB4 Track not present in AccurateRip database Copy OK

Track 2

Filename C:\Users\chris\Desktop\Rips\02 - Sad Memories.wav

Pre-gap length 0:00:01.66

Peak level 33.1 % Extraction speed 1.5 X Track quality 100.0 % Test CRC 5125C7B0 Copy CRC 5125C7B0 Track not present in AccurateRip database Copy OK

Track 3

Filename C:\Users\chris\Desktop\Rips\03 - Don''t Say It, Don''t Write It, Don''t Hear It.wav

Pre-gap length 0:00:03.17

Peak level 96.6 % Extraction speed 1.6 X Track quality 100.0 % Test CRC AC7FBE96 Copy CRC AC7FBE96 Track not present in AccurateRip database Copy OK

Track 4

Filename C:\Users\chris\Desktop\Rips\04 - Demon Possession (extended).wav

Pre-gap length 0:00:02.18

Peak level 96.6 % Extraction speed 1.7 X Track quality 100.0 % Test CRC 25C9FECA Copy CRC 25C9FECA Track not present in AccurateRip database Copy OK

Track 5

Filename C:\Users\chris\Desktop\Rips\05 - Get Me Out Of Here.wav

Pre-gap length 0:00:01.48

Peak level 96.6 % Extraction speed 1.7 X Track quality 99.9 % Test CRC B8814759 Copy CRC B8814759 Track not present in AccurateRip database Copy OK

Track 6

Filename C:\Users\chris\Desktop\Rips\06 - She Tried To Kill Me.wav

Pre-gap length 0:00:01.23

Peak level 96.6 % Extraction speed 1.7 X Track quality 100.0 % Test CRC AE499135 Copy CRC AE499135 Track not present in AccurateRip database Copy OK

Track 7

Filename C:\Users\chris\Desktop\Rips\07 - He Won''t Let You Out.wav

Pre-gap length 0:00:00.46

Peak level 96.6 % Extraction speed 1.8 X Track quality 100.0 % Test CRC 855A29C7 Copy CRC 855A29C7 Track not present in AccurateRip database Copy OK

Track 8

Filename C:\Users\chris\Desktop\Rips\08 - Bloody Kiss.wav

Pre-gap length 0:00:01.43

Peak level 96.6 % Extraction speed 1.5 X Track quality 99.9 % Test CRC D8623D37 Copy CRC D8623D37 Track not present in AccurateRip database Copy OK

Track 9

Filename C:\Users\chris\Desktop\Rips\09 - Three Ways Of Saving Her Soul.wav

Pre-gap length 0:00:01.40

Peak level 96.6 % Extraction speed 2.0 X Track quality 100.0 % Test CRC F28A28CE Copy CRC F28A28CE Track not present in AccurateRip database Copy OK

Track 10

Filename C:\Users\chris\Desktop\Rips\10 - Natalie Hunting.wav

Pre-gap length 0:00:01.72

Peak level 96.6 % Extraction speed 2.2 X Track quality 100.0 % Test CRC 1CD78F3B Copy CRC 1CD78F3B Track not present in AccurateRip database Copy OK

Track 11

Filename C:\Users\chris\Desktop\Rips\11 - I''ll Do What I Gotta Do (extended).wav

Pre-gap length 0:00:03.46

Peak level 96.6 % Extraction speed 2.4 X Track quality 100.0 % Test CRC 990A68E5 Copy CRC 990A68E5 Track not present in AccurateRip database Copy OK

Track 12

Filename C:\Users\chris\Desktop\Rips\12 - Come Back To Me.wav

Pre-gap length 0:00:01.61

Peak level 59.5 % Extraction speed 2.2 X Track quality 100.0 % Test CRC B70BEAE3 Copy CRC B70BEAE3 Track not present in AccurateRip database Copy OK

Track 13

Filename C:\Users\chris\Desktop\Rips\13 - He''s Coming.wav

Pre-gap length 0:00:02.07

Peak level 96.6 % Extraction speed 2.3 X Track quality 100.0 % Test CRC 2B4D9F94 Copy CRC 2B4D9F94 Track not present in AccurateRip database Copy OK

Track 14

Filename C:\Users\chris\Desktop\Rips\14 - Abominations Rising.wav

Pre-gap length 0:00:02.40

Peak level 96.6 % Extraction speed 2.6 X Track quality 100.0 % Test CRC 6FC0C08E Copy CRC 6FC0C08E Track not present in AccurateRip database Copy OK

Track 15

Filename C:\Users\chris\Desktop\Rips\15 - The Pendant , Evil Tango.wav

Pre-gap length 0:00:02.23

Peak level 96.6 % Extraction speed 2.5 X Track quality 100.0 % Test CRC 21F90062 Copy CRC 21F90062 Track not present in AccurateRip database Copy OK

Track 16

Filename C:\Users\chris\Desktop\Rips\16 - The Evil Dead Main Theme.wav

Pre-gap length 0:00:02.57

Peak level 27.7 % Extraction speed 1.7 X Track quality 99.8 % Test CRC 7D4E829B Copy CRC 7D4E829B Track not present in AccurateRip database Copy OK

Track 17

Filename C:\Users\chris\Desktop\Rips\17 - Come Back To Me (alternate).wav

Pre-gap length 0:00:03.22

Peak level 80.2 % Extraction speed 2.3 X Track quality 100.0 % Test CRC 1837D1B4 Copy CRC 1837D1B4 Track not present in AccurateRip database Copy OK

None of the tracks are present in the AccurateRip database

No errors occurred

End of status report

==== Log checksum 98B250BF696F697FDF3CF3BD821ED3CF3752E465C82496D2BD15380C49328335 ====
REM GENRE SoundtrackREM DATE 2013REM DISCID F410C511REM COMMENT "ExactAudioCopy v1.0b3"PERFORMER "Roque Banos"TITLE "Evil Dead"FILE "01 - I''ll Rip Your Soul Out.wav" WAVE TRACK 01 AUDIO TITLE "I''ll Rip Your Soul Out" PERFORMER "Roque Banos" INDEX 01 00:00:00 TRACK 02 AUDIO TITLE "Sad Memories" PERFORMER "Roque Banos" INDEX 00 04:50:25FILE "02 - Sad Memories.wav" WAVE INDEX 01 00:00:00 TRACK 03 AUDIO TITLE "Don''t Say It, Don''t Write It, Don''t Hear It" PERFORMER "Roque Banos" INDEX 00 05:21:02FILE "03 - Don''t Say It, Don''t Write It, Don''t Hear It.wav" WAVE INDEX 01 00:00:00 TRACK 04 AUDIO TITLE "Demon Possession (extended)" PERFORMER "Roque Banos" INDEX 00 04:42:01FILE "04 - Demon Possession (extended).wav" WAVE INDEX 01 00:00:00 TRACK 05 AUDIO TITLE "Get Me Out Of Here" PERFORMER "Roque Banos" INDEX 00 04:20:40FILE "05 - Get Me Out Of Here.wav" WAVE INDEX 01 00:00:00 TRACK 06 AUDIO TITLE "She Tried To Kill Me" PERFORMER "Roque Banos" INDEX 00 05:24:28FILE "06 - She Tried To Kill Me.wav" WAVE INDEX 01 00:00:00 TRACK 07 AUDIO TITLE "He Won''t Let You Out" PERFORMER "Roque Banos" INDEX 00 02:30:69FILE "07 - He Won''t Let You Out.wav" WAVE INDEX 01 00:00:00 TRACK 08 AUDIO TITLE "Bloody Kiss" PERFORMER "Roque Banos" INDEX 00 02:45:21FILE "08 - Bloody Kiss.wav" WAVE INDEX 01 00:00:00 TRACK 09 AUDIO TITLE "Three Ways Of Saving Her Soul" PERFORMER "Roque Banos" INDEX 00 02:22:42FILE "09 - Three Ways Of Saving Her Soul.wav" WAVE INDEX 01 00:00:00 TRACK 10 AUDIO TITLE "Natalie Hunting" PERFORMER "Roque Banos" INDEX 00 04:02:11FILE "10 - Natalie Hunting.wav" WAVE INDEX 01 00:00:00 TRACK 11 AUDIO TITLE "I''ll Do What I Gotta Do (extended)" PERFORMER "Roque Banos" INDEX 00 05:33:36FILE "11 - I''ll Do What I Gotta Do (extended).wav" WAVE INDEX 01 00:00:00 TRACK 12 AUDIO TITLE "Come Back To Me" PERFORMER "Roque Banos" INDEX 00 08:42:10FILE "12 - Come Back To Me.wav" WAVE INDEX 01 00:00:00 TRACK 13 AUDIO TITLE "He''s Coming" PERFORMER "Roque Banos" INDEX 00 03:01:74FILE "13 - He''s Coming.wav" WAVE INDEX 01 00:00:00 TRACK 14 AUDIO TITLE "Abominations Rising" PERFORMER "Roque Banos" INDEX 00 03:21:34FILE "14 - Abominations Rising.wav" WAVE INDEX 01 00:00:00 TRACK 15 AUDIO TITLE "The Pendant / Evil Tango" PERFORMER "Roque Banos" INDEX 00 06:57:71FILE "15 - The Pendant , Evil Tango.wav" WAVE INDEX 01 00:00:00 TRACK 16 AUDIO TITLE "The Evil Dead Main Theme" PERFORMER "Roque Banos" INDEX 00 03:20:61FILE "16 - The Evil Dead Main Theme.wav" WAVE INDEX 01 00:00:00 TRACK 17 AUDIO TITLE "Come Back To Me (alternate)" PERFORMER "Roque Banos" INDEX 00 01:41:20FILE "17 - Come Back To Me (alternate).wav" WAVE INDEX 01 00:00:00

MP3: (Score) Зловещие мертвецы: Черная книга / Evil Dead (by Roque Banos) - 2013, MP3, 320 kbps


Трекер:  [ 13-Май-2013 15:24 ]

  

Скачать .torrent

Размер .torrent файла 17 KB


Размер: 376 MB
Хэш (hash) релиза: 2790ae7b559b925cfb91f06f0504cff78a77833b

bot

Топик был перенесен в форум Саундтреки к фильмам и мультфильмам (lossless)

Перенес Galfimbul

Хотите добавить комментарий к записи скачать торрент Зловещие мертвецы: Черная книга Evil Dead

!Обратная связь