Скачать через торрент музыку Эпидемия The Last Days бесплатно без регистрации torrent

Если у вас наблюдаются проблемы со скриншотами, переходом по ссылками, скачиванием торрентов - проблемы в блокировщике рекламы AdBlock. #хорошегоДня!


Статистика раздачи
Размер:  336 MB   |    Зарегистрирован:  4 года 4 месяца   |    .torrent скачан:  21 раз   |   
Раздают:  1  
   
Загрузка...
 
Автор Сообщение

Galfimbul

avatar Galfimbul


Эпидемия / The Last Days (Los Ultimos Dias)


Жанр: Score || Композитор: Fernando Velazquez || Год выпуска диска: 2013 || Страна-производитель диска: Испания || Аудио кодек: FLAC (*.flac) || Тип рипа: tracks+.cue || Битрейт аудио: lossless || Продолжительность: 01:08:26 || Источник: What.cd || Наличие сканов в содержимом раздачи: да
Треклист:
01. Julia [01:02]
02. Your Turn [01:08]
03. It''s A GPS, Isn''t It? [00:32]
04. We''re There! [01:30]
05. Entering The Subway System [01:54]
06. Run! [02:56]
07. This Is Where You Leave Me [00:39]
08. What''s My Name? [02:18]
09. The First To Go [02:18]
10. There''s Something Going On [02:43]
11. What If I Miss? [02:33]
12. Open The Door! [04:57]
13. Breeding Like Idiots [01:32]
14. This Is How It Ends [03:11]
15. Even The Rain [01:48]
16. If She''s Still Alive [00:35]
17. Le''ts Build A Fire [1:02]
18. The Hunt [02:18]
19. You Think This Is It? [08:25]
20. On Hostile Ground [03:14]
21. Assault On The Supermarket [14:28]
22. Stepping Outside [01:28]
23. Agoraphobia [02:16]
24. Tommorow-Morrow [03:38]
Exact Audio Copy V1.0 beta 3 from 29. August 2011

EAC extraction logfile from 16. April 2013, 21:11

Fernando Velázquez / The Last Days

Used drive : HL-DT-STBD-RE BH10LS38 Adapter: 1 ID: 0

Read mode : SecureUtilize accurate stream : YesDefeat audio cache : YesMake use of C2 pointers : No

Read offset correction : 667Overread into Lead-In and Lead-Out : NoFill up missing offset samples with silence : YesDelete leading and trailing silent blocks : NoNull samples used in CRC calculations : YesUsed interface : Native Win32 interface for Win NT & 2000Gap handling : Appended to previous track

Used output format : User Defined EncoderSelected bitrate : 768 kBit/sQuality : HighAdd ID3 tag : NoCommand line compressor : C:\Program Files (x86)\Exact Audio Copy\FLAC\FLAC.EXEAdditional command line options : -8 -V -T "ARTIST=%artist%" -T "TITLE=%title%" -T "ALBUM=%albumtitle%" -T "DATE=%year%" -T "TRACKNUMBER=%tracknr%" -T "GENRE=%genre%" -T "PERFORMER=%albuminterpret%" -T "COMPOSER=%composer%" %haslyrics%--tag-from-file=LYRICS="%lyricsfile%"%haslyrics% -T "ALBUMARTIST=%albumartist%" -T "ALBUM ARTIST=%albumartist%" -T "DISCNUMBER=%cdnumber%" -T "TOTALDISCS=%totalcds%" -T "TOTALTRACKS=%numtracks%" -T "COMMENT=%comment%" %source% -o %dest%

TOC of the extracted CD

Track | Start | Length | Start sector | End sector --------------------------------------------------------- 1 | 0:00.00 | 1:02.01 | 0 | 4650 2 | 1:02.01 | 1:08.31 | 4651 | 9781 3 | 2:10.32 | 0:32.26 | 9782 | 12207 4 | 2:42.58 | 1:30.05 | 12208 | 18962 5 | 4:12.63 | 1:53.70 | 18963 | 27507 6 | 6:06.58 | 2:56.02 | 27508 | 40709 7 | 9:02.60 | 0:39.19 | 40710 | 43653 8 | 9:42.04 | 2:18.11 | 43654 | 54014 9 | 12:00.15 | 2:17.55 | 54015 | 64344 10 | 14:17.70 | 2:43.07 | 64345 | 76576 11 | 17:01.02 | 2:32.59 | 76577 | 88035 12 | 19:33.61 | 4:57.19 | 88036 | 110329 13 | 24:31.05 | 1:32.33 | 110330 | 117262 14 | 26:03.38 | 3:10.68 | 117263 | 131580 15 | 29:14.31 | 1:47.60 | 131581 | 139665 16 | 31:02.16 | 0:35.06 | 139666 | 142296 17 | 31:37.22 | 1:01.45 | 142297 | 146916 18 | 32:38.67 | 2:18.24 | 146917 | 157290 19 | 34:57.16 | 8:25.10 | 157291 | 195175 20 | 43:22.26 | 3:14.03 | 195176 | 209728 21 | 46:36.29 | 14:27.65 | 209729 | 274818 22 | 61:04.19 | 1:27.59 | 274819 | 281402 23 | 62:32.03 | 2:15.51 | 281403 | 291578 24 | 64:47.54 | 3:37.71 | 291579 | 307924

Track 1

Filename C:\Users\chris\Desktop\Rips\The Last Days - 2013\01 - Julia.wav

Pre-gap length 0:00:02.00

Peak level 95.1 % Extraction speed 0.8 X Track quality 100.0 % Test CRC A3145ED4 Copy CRC A3145ED4 Track not present in AccurateRip database Copy OK

Track 2

Filename C:\Users\chris\Desktop\Rips\The Last Days - 2013\02 - Your Turn.wav

Peak level 59.1 % Extraction speed 0.8 X Track quality 100.0 % Test CRC 07E9FE9F Copy CRC 07E9FE9F Track not present in AccurateRip database Copy OK

Track 3

Filename C:\Users\chris\Desktop\Rips\The Last Days - 2013\03 - It''s A GPS, Isn''t It.wav

Peak level 59.8 % Extraction speed 0.6 X Track quality 100.0 % Test CRC B6C85BDE Copy CRC B6C85BDE Track not present in AccurateRip database Copy OK

Track 4

Filename C:\Users\chris\Desktop\Rips\The Last Days - 2013\04 - We''re There!.wav

Peak level 97.4 % Extraction speed 0.9 X Track quality 100.0 % Test CRC 4B599C2A Copy CRC 4B599C2A Track not present in AccurateRip database Copy OK

Track 5

Filename C:\Users\chris\Desktop\Rips\The Last Days - 2013\05 - Entering The Subway System.wav

Peak level 97.5 % Extraction speed 1.1 X Track quality 100.0 % Test CRC 0FE9BF87 Copy CRC 0FE9BF87 Track not present in AccurateRip database Copy OK

Track 6

Filename C:\Users\chris\Desktop\Rips\The Last Days - 2013\06 - Run!.wav

Peak level 97.5 % Extraction speed 1.2 X Track quality 100.0 % Test CRC FF324088 Copy CRC FF324088 Track not present in AccurateRip database Copy OK

Track 7

Filename C:\Users\chris\Desktop\Rips\The Last Days - 2013\07 - This Is Where You Leave Me.wav

Peak level 38.6 % Extraction speed 0.8 X Track quality 100.0 % Test CRC 3C913463 Copy CRC 3C913463 Track not present in AccurateRip database Copy OK

Track 8

Filename C:\Users\chris\Desktop\Rips\The Last Days - 2013\08 - What''s My Name.wav

Peak level 97.4 % Extraction speed 1.3 X Track quality 100.0 % Test CRC EFCFAA19 Copy CRC EFCFAA19 Track not present in AccurateRip database Copy OK

Track 9

Filename C:\Users\chris\Desktop\Rips\The Last Days - 2013\09 - The First To Go.wav

Peak level 97.4 % Extraction speed 1.3 X Track quality 100.0 % Test CRC EAB6FD27 Copy CRC EAB6FD27 Track not present in AccurateRip database Copy OK

Track 10

Filename C:\Users\chris\Desktop\Rips\The Last Days - 2013\10 - There''s Something Going On.wav

Peak level 88.2 % Extraction speed 1.4 X Track quality 100.0 % Test CRC 9062912B Copy CRC 9062912B Track not present in AccurateRip database Copy OK

Track 11

Filename C:\Users\chris\Desktop\Rips\The Last Days - 2013\11 - What If I Miss.wav

Peak level 97.4 % Extraction speed 1.5 X Track quality 100.0 % Test CRC 98BEED5C Copy CRC 98BEED5C Track not present in AccurateRip database Copy OK

Track 12

Filename C:\Users\chris\Desktop\Rips\The Last Days - 2013\12 - Open The Door!.wav

Peak level 97.4 % Extraction speed 1.7 X Track quality 100.0 % Test CRC 916EE3DE Copy CRC 916EE3DE Track not present in AccurateRip database Copy OK

Track 13

Filename C:\Users\chris\Desktop\Rips\The Last Days - 2013\13 - Breeding Like Idiots.wav

Peak level 22.0 % Extraction speed 1.4 X Track quality 100.0 % Test CRC FC1246D4 Copy CRC FC1246D4 Track not present in AccurateRip database Copy OK

Track 14

Filename C:\Users\chris\Desktop\Rips\The Last Days - 2013\14 - This Is How It Ends.wav

Peak level 97.5 % Extraction speed 1.5 X Track quality 99.9 % Test CRC 73D94230 Copy CRC 73D94230 Track not present in AccurateRip database Copy OK

Track 15

Filename C:\Users\chris\Desktop\Rips\The Last Days - 2013\15 - Even The Rain.wav

Peak level 84.5 % Extraction speed 1.6 X Track quality 100.0 % Test CRC E296B101 Copy CRC E296B101 Track not present in AccurateRip database Copy OK

Track 16

Filename C:\Users\chris\Desktop\Rips\The Last Days - 2013\16 - If She''s Still Alive.wav

Peak level 83.4 % Extraction speed 1.0 X Track quality 100.0 % Test CRC 11E5D711 Copy CRC 11E5D711 Track not present in AccurateRip database Copy OK

Track 17

Filename C:\Users\chris\Desktop\Rips\The Last Days - 2013\17 - Le''ts Build A Fire.wav

Peak level 97.4 % Extraction speed 1.3 X Track quality 100.0 % Test CRC B8584DEC Copy CRC B8584DEC Track not present in AccurateRip database Copy OK

Track 18

Filename C:\Users\chris\Desktop\Rips\The Last Days - 2013\18 - The Hunt.wav

Peak level 98.2 % Extraction speed 1.7 X Track quality 100.0 % Test CRC 06566466 Copy CRC 06566466 Track not present in AccurateRip database Copy OK

Track 19

Filename C:\Users\chris\Desktop\Rips\The Last Days - 2013\19 - You Think This Is It.wav

Peak level 97.5 % Extraction speed 2.2 X Track quality 100.0 % Test CRC B0270DE5 Copy CRC B0270DE5 Track not present in AccurateRip database Copy OK

Track 20

Filename C:\Users\chris\Desktop\Rips\The Last Days - 2013\20 - On Hostile Ground.wav

Peak level 97.5 % Extraction speed 2.0 X Track quality 100.0 % Test CRC 3448096E Copy CRC 3448096E Track not present in AccurateRip database Copy OK

Track 21

Filename C:\Users\chris\Desktop\Rips\The Last Days - 2013\21 - Assault On The Supermarket.wav

Peak level 97.9 % Extraction speed 2.4 X Track quality 99.9 % Test CRC 37D66C36 Copy CRC 37D66C36 Track not present in AccurateRip database Copy OK

Track 22

Filename C:\Users\chris\Desktop\Rips\The Last Days - 2013\22 - Stepping Outside.wav

Peak level 92.7 % Extraction speed 1.9 X Track quality 100.0 % Test CRC 8C5C1F23 Copy CRC 8C5C1F23 Track not present in AccurateRip database Copy OK

Track 23

Filename C:\Users\chris\Desktop\Rips\The Last Days - 2013\23 - Agoraphobia.wav

Peak level 97.4 % Extraction speed 2.2 X Track quality 100.0 % Test CRC 6BE9BEAD Copy CRC 6BE9BEAD Track not present in AccurateRip database Copy OK

Track 24

Filename C:\Users\chris\Desktop\Rips\The Last Days - 2013\24 - Tommorow-Morrow.wav

Peak level 97.6 % Extraction speed 2.4 X Track quality 100.0 % Test CRC EF571350 Copy CRC EF571350 Track not present in AccurateRip database Copy OK

None of the tracks are present in the AccurateRip database

No errors occurred

End of status report

==== Log checksum B402A2C98B4AF629884622FD6A54CAFB29BBE079E650C7CDBD7FFA4C736E42AF ====
REM GENRE SoundtrackREM DATE 2013REM DISCID 7C100918REM COMMENT "ExactAudioCopy v1.0b3"PERFORMER "Fernando Velбzquez"TITLE "The Last Days"FILE "01 - Julia.wav" WAVE TRACK 01 AUDIO TITLE "Julia" PERFORMER "Fernando Velazquez" INDEX 01 00:00:00FILE "02 - Your Turn.wav" WAVE TRACK 02 AUDIO TITLE "Your Turn" PERFORMER "Fernando Velazquez" INDEX 01 00:00:00FILE "03 - It''s A GPS, Isn''t It.wav" WAVE TRACK 03 AUDIO TITLE "It''s A GPS, Isn''t It?" PERFORMER "Fernando Velazquez" INDEX 01 00:00:00FILE "04 - We''re There!.wav" WAVE TRACK 04 AUDIO TITLE "We''re There!" PERFORMER "Fernando Velazquez" INDEX 01 00:00:00FILE "05 - Entering The Subway System.wav" WAVE TRACK 05 AUDIO TITLE "Entering The Subway System" PERFORMER "Fernando Velazquez" INDEX 01 00:00:00FILE "06 - Run!.wav" WAVE TRACK 06 AUDIO TITLE "Run!" PERFORMER "Fernando Velazquez" INDEX 01 00:00:00FILE "07 - This Is Where You Leave Me.wav" WAVE TRACK 07 AUDIO TITLE "This Is Where You Leave Me" PERFORMER "Fernando Velazquez" INDEX 01 00:00:00FILE "08 - What''s My Name.wav" WAVE TRACK 08 AUDIO TITLE "What''s My Name?" PERFORMER "Fernando Velazquez" INDEX 01 00:00:00FILE "09 - The First To Go.wav" WAVE TRACK 09 AUDIO TITLE "The First To Go" PERFORMER "Fernando Velazquez" INDEX 01 00:00:00FILE "10 - There''s Something Going On.wav" WAVE TRACK 10 AUDIO TITLE "There''s Something Going On" PERFORMER "Fernando Velazquez" INDEX 01 00:00:00FILE "11 - What If I Miss.wav" WAVE TRACK 11 AUDIO TITLE "What If I Miss?" PERFORMER "Fernando Velazquez" INDEX 01 00:00:00FILE "12 - Open The Door!.wav" WAVE TRACK 12 AUDIO TITLE "Open The Door!" PERFORMER "Fernando Velazquez" INDEX 01 00:00:00FILE "13 - Breeding Like Idiots.wav" WAVE TRACK 13 AUDIO TITLE "Breeding Like Idiots" PERFORMER "Fernando Velazquez" INDEX 01 00:00:00FILE "14 - This Is How It Ends.wav" WAVE TRACK 14 AUDIO TITLE "This Is How It Ends" PERFORMER "Fernando Velazquez" INDEX 01 00:00:00FILE "15 - Even The Rain.wav" WAVE TRACK 15 AUDIO TITLE "Even The Rain" PERFORMER "Fernando Velazquez" INDEX 01 00:00:00FILE "16 - If She''s Still Alive.wav" WAVE TRACK 16 AUDIO TITLE "If She''s Still Alive" PERFORMER "Fernando Velazquez" INDEX 01 00:00:00FILE "17 - Le''ts Build A Fire.wav" WAVE TRACK 17 AUDIO TITLE "Le''ts Build A Fire" PERFORMER "Fernando Velazquez" INDEX 01 00:00:00FILE "18 - The Hunt.wav" WAVE TRACK 18 AUDIO TITLE "The Hunt" PERFORMER "Fernando Velazquez" INDEX 01 00:00:00FILE "19 - You Think This Is It.wav" WAVE TRACK 19 AUDIO TITLE "You Think This Is It?" PERFORMER "Fernando Velazquez" INDEX 01 00:00:00FILE "20 - On Hostile Ground.wav" WAVE TRACK 20 AUDIO TITLE "On Hostile Ground" PERFORMER "Fernando Velazquez" INDEX 01 00:00:00FILE "21 - Assault On The Supermarket.wav" WAVE TRACK 21 AUDIO TITLE "Assault On The Supermarket" PERFORMER "Fernando Velazquez" INDEX 01 00:00:00FILE "22 - Stepping Outside.wav" WAVE TRACK 22 AUDIO TITLE "Stepping Outside" PERFORMER "Fernando Velazquez" INDEX 01 00:00:00FILE "23 - Agoraphobia.wav" WAVE TRACK 23 AUDIO TITLE "Agoraphobia" PERFORMER "Fernando Velazquez" INDEX 01 00:00:00FILE "24 - Tommorow-Morrow.wav" WAVE TRACK 24 AUDIO TITLE "Tommorow-Morrow" PERFORMER "Fernando Velazquez" INDEX 01 00:00:00

MP3: (Score) Эпидемия / The Last Days (Los Ultimos Dias) (by Fernando Velazquez) - 2013, MP3, 320 kbps


Трекер:  [ 13-Май-2013 15:24 ]

  

Скачать .torrent

Размер .torrent файла 15 KB


Размер: 336 MB
Хэш (hash) релиза: a483a02247740b5da584d0ebc50942ba5476aac3

Торренты, похожие на Эпидемия The Last Days скачать торрент

Форум Название Автор Размер S L Добавлен
Саундтреки к фильмам и мультфильмам (mp3) ·· (Score) Эпидемия / The Last Days (Los Ultimos Dias) (by Fernando Velazquez) - 2013, MP3, 320 kbps Galfimbul 192655067184 MB 0 0 1366403424

23:30

19-Апр-13

bot

Топик был перенесен в форум Саундтреки к фильмам и мультфильмам (lossless)

Перенес Galfimbul

Хотите добавить комментарий к записи скачать торрент Эпидемия The Last Days

!Обратная связь