Скачать через торрент Моя девушка и подруга детства часто ссорятся OreShura бесплатно Аниме Все серии на русском torrent

Если у вас наблюдаются проблемы со скриншотами, переходом по ссылками, скачиванием торрентов - проблемы в блокировщике рекламы AdBlock. #хорошегоДня!


Статистика раздачи
Размер:  2.21 GB   |    Зарегистрирован:  4 года 5 месяцев   |    .torrent скачан:  34 раза   |   
Раздают:  1  
   
Загрузка...
 
Автор Сообщение

Galfimbul

avatar Galfimbul



Год выпуска: 2013
Страна: Япония
Жанр: комедия, романтика
Продолжительность: 13 эп. по 25 мин.
Перевод:

русские субтитры от Koushin (полные/вспомогательные)
Озвучка:

двухголосая (муж./жен.) от MIKS & comina (Opendub)
трехголосая от Tinko & Shina & Wolfys (AniDub)
Режиссер: Камэй Канта
Студия: A-1 Pictures Inc.
Описание:
После развода родителей 15-летнего Эйту Кидо отправили на попечение дальней родственницы. Эйта - парень серьезный, а сиротство при живых родителях окончательно развеяло иллюзии насчет любви и всяческой романтики. Вместо этого в старшей школе парень вгрызся в гранит науки, надеясь заработать стипендию и поступить на медицинский факультет, чтобы отплатить тетушке Саэко за доброту. Была и другая причина – старую знакомую по имени Тива Харусаки год назад сбила машина, и хотя девушка не сломалась и сохранила прямой и веселый характер, но спорт ей пришлось бросить. Мечтая исцелить подругу детства, Кидо еще глубже погрузился в учебники, твердо решив отринуть любые искушения на пути к цели.

Тут бедняга и попался – на него положила глаз Масудзу Нацукава, сребровласая королева школы. Желая прекратить поток надоевших признаний, Масудзу поступила мудро: выбирая подставным парнем первого ученика, она сохраняет лицо, а личных проблем от «ботаника» ждать не придется. Мнение партнера красавицу не волновало (на то есть свои методы), но гордячка ошибалась в другом – ее выбор резко повысил акции Эйты среди местного женского населения. Первой, конечно же, высказалась подруга детства, а что потом – знает каждый истинный любитель аниме. Ну а дальше не то что на медицинский – на театральный пора собираться!
© Расселл Д. Джонс, World Art
Информационные ссылки: AniDB || World Art || MAL
Качество: BDRip
Энкод: Winter - RG Pantheon
Тип видео: без хардсаба
Формат: mkv
Видео: x264 (Hi10p), 1280x720, ~2800 Kbps, 23.976 fps
Аудио JAP: Vorbis, 48000Hz, ~256 Kbps, 2ch
Аудио RUS 1-2: AC3, 48000Hz, 192 Kbps, 2ch
01. The Start of My High School Life is a Battleground
02. Starting a New Club Is a Battleground
03. A Battleground Over the Tears of a Childhood Friend
Общее
Уникальный идентификатор : 234606790646619325225026657599934969009 (0xB07F9FD3D90A7F42AAC1187F21B434B1)
Полное имя : Z:\Anime\720p\OreShura [BD] [720p]\[Winter] Ore no Kanojo to Osananajimi ga Shuraba Sugiru - 01 [BDrip 1280x720 x264 Vorbis].mkv
Формат : Matroska
Версия формата : Version 2
Размер файла : 604 Мбайт
Продолжительность : 23 м.
Режим общего битрейта : Переменный
Общий поток : 3545 Кбит/сек
Дата кодирования : UTC 2013-03-06 05:00:23
Программа кодирования : mkvmerge v2.9.8 (''C''est le bon'') built on Aug 13 2009 12:49:06
Библиотека кодирования : libebml v0.7.7 + libmatroska v0.8.1

Видео
Идентификатор : 1
Формат : AVC
Формат/Информация : Advanced Video Codec
Профиль формата : High 10@L4.1
Параметр CABAC формата : Да
Параметр ReFrames формата : 9 кадров
Идентификатор кодека : V_MPEG4/ISO/AVC
Продолжительность : 23 м.
Битрейт : 3219 Кбит/сек
Ширина : 1280 пикселей
Высота : 720 пикселей
Соотношение сторон : 16:9
Режим частоты кадров : Постоянный
Частота кадров : 23,976 кадра/сек
Цветовое пространство : YUV
Субдискретизация насыщенности : 4:2:0
Битовая глубина : 10 бит
Тип развёртки : Прогрессивная
Бит/(Пиксели*Кадры) : 0.146
Размер потока : 548 Мбайт (91%)
Библиотека кодирования : x264 core 129 r2230 1cffe9f
Настройки программы : cabac=1 / ref=9 / deblock=1:-2:-2 / analyse=0x3:0x133 / me=umh / subme=9 / psy=1 / psy_rd=0.90:0.00 / mixed_ref=1 / me_range=24 / chroma_me=1 / trellis=2 / 8x8dct=1 / cqm=0 / deadzone=21,11 / fast_pskip=1 / chroma_qp_offset=-2 / threads=6 / lookahead_threads=1 / sliced_threads=0 / nr=0 / decimate=0 / interlaced=0 / bluray_compat=0 / constrained_intra=0 / bframes=8 / b_pyramid=2 / b_adapt=2 / b_bias=0 / direct=1 / weightb=1 / open_gop=0 / weightp=2 / keyint=250 / keyint_min=23 / scenecut=40 / intra_refresh=0 / rc=crf / mbtree=0 / crf=15.8 / qcomp=0.70 / qpmin=9 / qpmax=40 / qpstep=4 / ip_ratio=1.40 / pb_ratio=1.30 / aq=1:0.90
Default : Нет
Forced : Нет

Аудио
Идентификатор : 2
Формат : Vorbis
Параметр Floor формата : 1
Идентификатор кодека : A_VORBIS
Продолжительность : 23 м.
Вид битрейта : Переменный
Битрейт : 256 Кбит/сек
Каналы : 2 канала
Частота : 48,0 КГц
Метод сжатия : С потерями
Размер потока : 43,6 Мбайт (7%)
Библиотека кодирования : libVorbis (Schaufenugget) (20101101 (Schaufenugget))
Язык : Japanese
Default : Да
Forced : Нет




Трекер:  [ 21-Апр-2013 16:11 ]

  

Скачать .torrent

Размер .torrent файла 14 KB


Размер: 2.21 GB
Хэш (hash) релиза: a85021e774a93cc11192e8dc1671820563f92598
Подписка на обновления:

Еще никто не оставлял запись к записи скачать торрент Моя девушка и подруга детства часто ссорятся OreShura . Будь первым!

!Обратная связь