Скачать порно через торрент Miyazaki Maya Daizukan Большая иллюстрированная книга Миядзаки Майя UnionPeer.org бесплатно онлайн HD качество

Скачать новое порно 2015, 2014 новинки через торрент UnionPeer.org

Порно торрент бесплатно ЮнионПир.орг

Если у вас наблюдаются проблемы со скриншотами, переходом по ссылками, скачиванием торрентов - проблемы в блокировщике рекламы AdBlock. #хорошегоДня!


Статистика раздачи
Размер:  2.33 GB   |    Зарегистрирован:  4 года 7 месяцев   |    .torrent скачан:  185 раз   |   
Раздают:  1  
   
Загрузка...
 
Автор Сообщение

Galfimbul

avatar Galfimbul


宮崎摩耶大図鑑 | Miyazaki Maya Daizukan | Большая иллюстрированная книга Миядзаки Майя


Год выпуска: 2010
Страна: Япония
Жанр: bdsm, big tits, rape, straight
Продолжительность: >2 эп. по 15 мин.
Субтитры: Отсутствуют
Цензура: Присутствует
Студия: AniMan | MS Pictures
Описание:
A compilation of 3 unrelated stories across 2 approximately 15 minute episodes.

The Legend of Ooedo's 800 Holes
Ishide Takehiko falls in a manhole and ends up in ancient Japan. After wandering with no food or water for 3 days he stumbles across run-away princess Tokugawa Tsubaki and decides to have his way with her. She doesn't protest, much. But now she expects him to what?!

Bicycle
A guy ("the substitute guy") watches Wadameda Chitose ride her bike down a hill every day in her gym uniform. She uses the bumpy ride for her own personal enjoyment. He's come up with a plan to get involved with her daily activities.

Winter Love
Virgin science teacher Ootsuka Jinpachi one day decides that fellow teacher Matsuo Aiko's bad attitude has earned her a ravaging. He tricks her into drinking an aphrodisiac and "researches" her with various scientific glassware and a pen before ravaging her. But she actually...?
Информационные ссылки: AniDB || MAL || World Art || ХентайМаг
Исходник: DVD-5
Видео: MPEG2 | NTSC | 16x9 | 720x480 | 8000 Kbps
Аудио JAP: AC-3 | 48000Hz | 128 Kbps | 2ch
01. Volume 1
02. Volume 2
General
Complete name : H:\VIDEO_TS\VTS_01_1.VOB
Format : MPEG-PS
File size : 1 024 MiB
Duration : 13mn 3s
Overall bit rate mode : Variable
Overall bit rate : 11.0 Mbps
Writing library : encoded by TMPGEnc 4.0 XPress Version. 4.7.4.299

Video
ID : 224 (0xE0)
Format : MPEG Video
Format version : Version 2
Format profile : Main@Main
Format settings, BVOP : Yes
Format settings, Matrix : Custom
Format settings, GOP : M=3, N=16
Duration : 13mn 3s
Bit rate mode : Variable
Bit rate : 10.6 Mbps
Maximum bit rate : 8 000 Kbps
Width : 720 pixels
Height : 480 pixels
Display aspect ratio : 16:9
Frame rate : 29.970 fps
Standard : NTSC
Color space : YUV
Chroma subsampling : 4:2:0
Bit depth : 8 bits
Scan type : Interlaced
Scan order : Top Field First
Compression mode : Lossy
Bits/(Pixel*Frame) : 1.026
Stream size : 992 MiB (97%)
Writing library : TMPGEnc XPress 4.7.4.299
Color primaries : SMPTE 170M
Transfer characteristics : SMPTE 170M
Matrix coefficients : SMPTE 170M

Audio
ID : 189 (0xBD)-128 (0x80)
Format : AC-3
Format/Info : Audio Coding 3
Mode extension : CM (complete main)
Muxing mode : DVD-Video
Duration : 13mn 2s
Bit rate mode : Constant
Bit rate : 128 Kbps
Channel(s) : 2 channels
Channel positions : Front: L R
Sampling rate : 48.0 KHz
Bit depth : 16 bits
Compression mode : Lossy
Stream size : 11.9 MiB (1%)


Исходник: DVD-5
Видео: MPEG2 | NTSC | 16x9 | 720x480 | 8000 Kbps
Аудио JAP: AC-3 | 48000Hz | 128 Kbps | 2ch
General
Complete name : H:\VIDEO_TS\VTS_01_1.VOB
Format : MPEG-PS
File size : 1 024 MiB
Duration : 17s 17ms
Overall bit rate mode : Variable
Overall bit rate : 505 Mbps

Video
ID : 224 (0xE0)
Format : MPEG Video
Format version : Version 2
Format profile : Main@Main
Format settings, BVOP : Yes
Format settings, Matrix : Custom
Format settings, GOP : M=3, N=16
Duration : 17s 17ms
Bit rate mode : Variable
Bit rate : 494 Mbps
Maximum bit rate : 8 000 Kbps
Width : 720 pixels
Height : 480 pixels
Display aspect ratio : 16:9
Frame rate : 29.970 fps
Standard : NTSC
Color space : YUV
Chroma subsampling : 4:2:0
Bit depth : 8 bits
Scan type : Interlaced
Scan order : Top Field First
Compression mode : Lossy
Bits/(Pixel*Frame) : 47.740
Stream size : 1 003 MiB (98%)
Color primaries : SMPTE 170M
Transfer characteristics : SMPTE 170M
Matrix coefficients : SMPTE 170M

Audio
ID : 189 (0xBD)-128 (0x80)
Format : AC-3
Format/Info : Audio Coding 3
Mode extension : CM (complete main)
Muxing mode : DVD-Video
Duration : 16s 864ms
Bit rate mode : Constant
Bit rate : 128 Kbps
Channel(s) : 2 channels
Channel positions : Front: L R
Sampling rate : 48.0 KHz
Bit depth : 16 bits
Compression mode : Lossy
Stream size : 264 KiB (0%)
Чем воспроизводить образ диска формата *.ISO

Трекер:  [ 22-Апр-2013 20:01 ]

  

Скачать .torrent

Размер .torrent файла 12 KB


Размер: 2.33 GB
Хэш (hash) релиза: b96c8e36777d4de10f0469573ecdc7805f3c9682

Торренты, похожие на Miyazaki Maya Daizukan Большая иллюстрированная книга Миядзаки Майя скачать торрент

Форум Название Автор Размер S L Добавлен
Хентай, порно и эротические мультфильмы ·· Miyazaki Maya Daizukan / Большая иллюстрированная книга Миядзаки Майя (AniMan) (ep. 1-2 of 2) [uncen] [2010-2011, mystic, teachers, kimono, bdsm, big tits, straight, rape, DLversion] [jap / rus / eng / kor / vie] [1080p][480p] Galfimbul 10579367701009 MB 0 0 1489937619

18:33

19-Мар-17

Еще никто не оставлял запись к записи скачать торрент Miyazaki Maya Daizukan Большая иллюстрированная книга Миядзаки Майя . Будь первым!

!Обратная связь