Скачать порно через торрент Miboujin Nikki The Animation Miboujin Nikki: Akogare no Ano Hito to Hitotsu Yane no Shita UnionPeer.org бесплатно онлайн HD качество

Скачать новое порно 2015, 2014 новинки через торрент UnionPeer.org

Порно торрент бесплатно ЮнионПир.орг

Если у вас наблюдаются проблемы со скриншотами, переходом по ссылками, скачиванием торрентов - проблемы в блокировщике рекламы AdBlock. #хорошегоДня!


Статистика раздачи
Размер:  2.6 GB   |    Зарегистрирован:  4 года 6 месяцев   |    .torrent скачан:  295 раз   |   
Раздают:  2  
   
Загрузка...
 
Автор Сообщение

Galfimbul

avatar Galfimbul


未亡人日記 THE ANIMATION
Miboujin Nikki The Animation
Miboujin Nikki: Akogare no Ano Hito to Hitotsu Yane no Shita
Дневник вдовы


Год выпуска: 2013
Страна: Япония
Жанр: big tits, footjob, glasses, oral sex, stockings
Продолжительность: >1 эп. 30 мин.
Субтитры: Отсутствуют
Цензура: Присутствует
Режиссёр: Sadayama Yanaha
Студия: Pink Pineapple
Описание:
Ever since Ayako's husband died, Ak-kun took it upon himself to guard her as his cousin. However, he suddenly realized that this situation can lead to something even more intimate... Will his virginity be in trouble?
Информационные ссылки: AniDB || MAL || World Art || ХентайМаг
Исходник: DVD-5
Видео: MPEG2 | NTSC | 16x9 | 720x480 | 9800 Kbps
Аудио JAP: AC-3 | 48000Hz | 192 Kbps | 2ch
01. Volume 1
General
Complete name : H:\VIDEO_TS\VTS_01_1.VOB
Format : MPEG-PS
File size : 1 024 MiB
Duration : 14mn 59s
Overall bit rate mode : Variable
Overall bit rate : 9 547 Kbps

Video
ID : 224 (0xE0)
Format : MPEG Video
Format version : Version 2
Format profile : Main@Main
Format settings, BVOP : Yes
Format settings, Matrix : Custom
Duration : 14mn 59s
Bit rate mode : Variable
Bit rate : 9 165 Kbps
Maximum bit rate : 9 800 Kbps
Width : 720 pixels
Height : 480 pixels
Display aspect ratio : 16:9
Frame rate : 29.970 fps
Standard : NTSC
Color space : YUV
Chroma subsampling : 4:2:0
Bit depth : 8 bits
Scan type : Interlaced
Scan order : Top Field First
Compression mode : Lossy
Bits/(Pixel*Frame) : 0.885
Stream size : 983 MiB (96%)

Audio
ID : 189 (0xBD)-128 (0x80)
Format : AC-3
Format/Info : Audio Coding 3
Mode extension : CM (complete main)
Muxing mode : DVD-Video
Duration : 14mn 59s
Bit rate mode : Constant
Bit rate : 192 Kbps
Channel(s) : 2 channels
Channel positions : Front: L R
Sampling rate : 48.0 KHz
Bit depth : 16 bits
Compression mode : Lossy
Stream size : 20.6 MiB (2%)
Чем воспроизводить образ диска формата *.ISO

Трекер:  [ 22-Апр-2013 20:01 ]

  

Скачать .torrent

Размер .torrent файла 13 KB


Размер: 2.6 GB
Хэш (hash) релиза: 157fe41c386d8b11c1e3c7f335d919f527cba57a

Торренты, похожие на Miboujin Nikki The Animation Miboujin Nikki: Akogare no Ano Hito to Hitotsu Yane no Shita скачать торрент

Форум Название Автор Размер S L Добавлен
Хентай, порно и эротические мультфильмы ·· Miboujin Nikki The Animation: Akogare no Ano Hito to Hitotsu Yane no Shita / Дневник Вдовы (Sadayama Yanaha, pinkpineapple) (ep. 1) [cen] [2013 г. Big tits, Oral sex, Widow, Glasses, DVDRip] [jap / cor / chi / fra / eng / rus] Galfimbul 221891776212 MB 0 0 1440433915

19:31

24-Авг-15

Еще никто не оставлял запись к записи скачать торрент Miboujin Nikki The Animation Miboujin Nikki: Akogare no Ano Hito to Hitotsu Yane no Shita . Будь первым!

!Обратная связь