Скачать порно через торрент Hitou Meguri Kakure Yu: Mao Hen Hitou Meguri Kakure Yu: Mao Hen UnionPeer.org бесплатно онлайн HD качество

Скачать новое порно 2015, 2014 новинки через торрент UnionPeer.org

Порно торрент бесплатно ЮнионПир.орг

Если у вас наблюдаются проблемы со скриншотами, переходом по ссылками, скачиванием торрентов - проблемы в блокировщике рекламы AdBlock. #хорошегоДня!


Статистика раздачи
Размер:  1.21 GB   |    Зарегистрирован:  4 года 3 месяца   |    .torrent скачан:  108 раз   |   
Раздают:  1  
   
Загрузка...
 
Автор Сообщение

Galfimbul

avatar Galfimbul


秘湯めぐり 隠れ湯 舞桜編 | Hitou Meguri Kakure Yu: Mao Hen | Хито Мэгури: Затерявшийся источник ~Танец лепестков сакуры~
Год выпуска: 2013
Страна: Япония
Жанр: Kimono, Public sex, Rape, Small tits, Virgin
Продолжительность: >1 эп. 15 мин.
Субтитры: Отсутствуют
Цензура: Присутствует
Режиссёр: Sadayama Yanaha
Студия: Mary Jane
Описание:
Mao, who has a secret crush on Mikio, makes up her mind and invites him to go on a trip. The invitation gets accepted, and at the thought of the trip just for the two she feels elated.

Mikio falls asleep right after installing himself in a seat opposite Mao in the train, helplessly spoiling the sport. She expands her expectations looking forward to upcoming events, though his seeming lack of interest dampens her ardor a bit.

Despite her hopeful view, however, it turns out that her passion for Mikio only ends up arousing the sexual desire of a man that appears unexpectedly...
Информационные ссылки: AniDB || MAL || World Art || ХентайМаг
Исходник: DVD-5
Видео: MPEG2 | NTSC | 16x9 | 720x480 | 7880 Kbps
Аудио JAP: AC-3 | 48000Hz | 224 Kbps | 2ch
01. Falling Cherry Blossoms
General
Complete name : H:\VIDEO_TS\VTS_01_1.VOB
Format : MPEG-PS
File size : 1 024 MiB
Duration : 1mn 23s
Overall bit rate : 103 Mbps

Video
ID : 224 (0xE0)
Format : MPEG Video
Format version : Version 2
Format profile : Main@Main
Format settings, BVOP : Yes
Format settings, Matrix : Default
Format settings, GOP : M=3, N=12
Duration : 1mn 23s
Bit rate : 100 Mbps
Maximum bit rate : 7 880 Kbps
Width : 720 pixels
Height : 480 pixels
Display aspect ratio : 16:9
Frame rate : 29.970 fps
Standard : NTSC
Color space : YUV
Chroma subsampling : 4:2:0
Bit depth : 8 bits
Scan type : Interlaced
Scan order : Bottom Field First
Compression mode : Lossy
Bits/(Pixel*Frame) : 9.697
Stream size : 1 001 MiB (98%)

Audio
ID : 189 (0xBD)-128 (0x80)
Format : AC-3
Format/Info : Audio Coding 3
Mode extension : CM (complete main)
Muxing mode : DVD-Video
Duration : 1mn 23s
Bit rate mode : Constant
Bit rate : 224 Kbps
Channel(s) : 2 channels
Channel positions : Front: L R
Sampling rate : 48.0 KHz
Bit depth : 16 bits
Compression mode : Lossy
Delay relative to video : -66ms
Stream size : 2.23 MiB (0%)
Чем воспроизводить образ диска формата *.ISO

Трекер:  [ 22-Апр-2013 20:01 ]

  

Скачать .torrent

Размер .torrent файла 12 KB


Размер: 1.21 GB
Хэш (hash) релиза: 46d9b4f055fff95657107a49ec6966207a35f0ab

Еще никто не оставлял запись к записи скачать торрент Hitou Meguri Kakure Yu: Mao Hen Hitou Meguri Kakure Yu: Mao Hen . Будь первым!

!Обратная связь