Скачать через торрент музыку The Road To El Dorado бесплатно без регистрации torrent

Если у вас наблюдаются проблемы со скриншотами, переходом по ссылками, скачиванием торрентов - проблемы в блокировщике рекламы AdBlock. #хорошегоДня!


Статистика раздачи
Размер:  463 MB   |    Зарегистрирован:  4 года 4 месяца   |    .torrent скачан:  28 раз   |   
Раздают:  1  
   
Загрузка...
 
Автор Сообщение

Galfimbul

avatar Galfimbul


The Road To El Dorado

Название альбома: Elton John''s The Road To El Dorado
Жанр: Soundtrack
Композитор: Elton John
Год выпуска диска: 2000
Год выпуска фильма: 2000
Страна-производитель диска: EU
Издатель (лейбл): SKG Music
Номер по каталогу: 450 219-2
Аудиокодек: APE (*.ape)
Тип рипа: tracks+.cue
Битрейт аудио: lossless
Продолжительность: 01:02:14

Источник: Осел-сеть; от Nebarmaley

Американец: http://unionpeer.org/forum/viewtopic.php?t=865788

Наличие сканов в содержимом раздачи: да

Треклист:

1. El Dorado
02. Someday Out Of The Blue (Theme From El Dorado)
03. Without Question
04. Friends Never Say Goodbye
05. The Trail We Blaze
06. 16th Century Man
07. The Panic In Me
08. It''s Tough To Be A God (Duet with Randy Newman)
09. Trust Me
10. My Heart Dances
11. Queen Of Cities
12. Cheldorado
13. The Brig
14. Wonders Of The New World
Exact Audio Copy V0.99 prebeta 5 from 4. May 2009

EAC extraction logfile from 11. April 2013, 9:42

Elton John / The Road To El Dorado.(SKG.EU)

Used drive : Optiarc DVD RW AD-5280S Adapter: 2 ID: 0

Read mode : SecureUtilize accurate stream : YesDefeat audio cache : YesMake use of C2 pointers : No

Read offset correction : 48Overread into Lead-In and Lead-Out : NoFill up missing offset samples with silence : YesDelete leading and trailing silent blocks : NoNull samples used in CRC calculations : YesUsed interface : Native Win32 interface for Win NT & 2000Gap handling : Appended to previous track

Used output format : Internal WAV RoutinesSample format : 44.100 Hz; 16 Bit; Stereo

TOC of the extracted CD

Track | Start | Length | Start sector | End sector --------------------------------------------------------- 1 | 0:00.00 | 4:22.02 | 0 | 19651 2 | 4:22.02 | 4:47.70 | 19652 | 41246 3 | 9:09.72 | 4:47.20 | 41247 | 62791 4 | 13:57.17 | 4:20.53 | 62792 | 82344 5 | 18:17.70 | 3:53.60 | 82345 | 99879 6 | 22:11.55 | 3:39.37 | 99880 | 116341 7 | 25:51.17 | 5:40.03 | 116342 | 141844 8 | 31:31.20 | 3:49.42 | 141845 | 159061 9 | 35:20.62 | 4:45.60 | 159062 | 180496 10 | 40:06.47 | 4:51.03 | 180497 | 202324 11 | 44:57.50 | 3:56.35 | 202325 | 220059 12 | 48:54.10 | 4:26.25 | 220060 | 240034 13 | 53:20.35 | 2:58.22 | 240035 | 253406 14 | 56:18.57 | 5:55.63 | 253407 | 280094

Track 1

Filename C:\Users\Bishop\Desktop\Elton John - The Road To El Dorado.(2000.SKG.EU).wv\01. El Dorado.wav

Pre-gap length 0:00:02.00

Peak level 98.8 % Track quality 100.0 % Test CRC CAE45441 Copy CRC CAE45441 Accurately ripped (confidence 2) [93486764] Copy OK

Track 2

Filename C:\Users\Bishop\Desktop\Elton John - The Road To El Dorado.(2000.SKG.EU).wv\02. Someday Out Of The Blue (Theme From El Dorado).wav

Peak level 98.8 % Track quality 100.0 % Test CRC 06488B15 Copy CRC 06488B15 Accurately ripped (confidence 2) [101C1715] Copy OK

Track 3

Filename C:\Users\Bishop\Desktop\Elton John - The Road To El Dorado.(2000.SKG.EU).wv\03. Without Question.wav

Peak level 98.8 % Track quality 100.0 % Test CRC 498E3295 Copy CRC 498E3295 Accurately ripped (confidence 2) [6706C751] Copy OK

Track 4

Filename C:\Users\Bishop\Desktop\Elton John - The Road To El Dorado.(2000.SKG.EU).wv\04. Friends Never Say Goodbye.wav

Peak level 98.8 % Track quality 100.0 % Test CRC F9D251AC Copy CRC F9D251AC Accurately ripped (confidence 2) [4BE3975D] Copy OK

Track 5

Filename C:\Users\Bishop\Desktop\Elton John - The Road To El Dorado.(2000.SKG.EU).wv\05. The Trail We Blaze.wav

Peak level 98.8 % Track quality 100.0 % Test CRC 34542D11 Copy CRC 34542D11 Accurately ripped (confidence 2) [B782C573] Copy OK

Track 6

Filename C:\Users\Bishop\Desktop\Elton John - The Road To El Dorado.(2000.SKG.EU).wv\06. 16th Century Man.wav

Peak level 98.8 % Track quality 99.9 % Test CRC EC03E8FB Copy CRC EC03E8FB Accurately ripped (confidence 2) [7B78CB26] Copy OK

Track 7

Filename C:\Users\Bishop\Desktop\Elton John - The Road To El Dorado.(2000.SKG.EU).wv\07. The Panic In Me.wav

Peak level 98.8 % Track quality 99.9 % Test CRC 17B0ECD9 Copy CRC 17B0ECD9 Accurately ripped (confidence 2) [88597378] Copy OK

Track 8

Filename C:\Users\Bishop\Desktop\Elton John - The Road To El Dorado.(2000.SKG.EU).wv\08. It''s Tough To Be A God (Duet With Randy Newman).wav

Peak level 98.8 % Track quality 100.0 % Test CRC 1D5D4F92 Copy CRC 1D5D4F92 Accurately ripped (confidence 2) [6E24E9E5] Copy OK

Track 9

Filename C:\Users\Bishop\Desktop\Elton John - The Road To El Dorado.(2000.SKG.EU).wv\09. Trust Me.wav

Peak level 98.8 % Track quality 100.0 % Test CRC DB51F83C Copy CRC DB51F83C Accurately ripped (confidence 2) [14FE2753] Copy OK

Track 10

Filename C:\Users\Bishop\Desktop\Elton John - The Road To El Dorado.(2000.SKG.EU).wv\10. My Heart Dances.wav

Peak level 98.8 % Track quality 100.0 % Test CRC 1DBE6038 Copy CRC 1DBE6038 Accurately ripped (confidence 2) [BE920F67] Copy OK

Track 11

Filename C:\Users\Bishop\Desktop\Elton John - The Road To El Dorado.(2000.SKG.EU).wv\11. Queen Of Cities.wav

Peak level 98.8 % Track quality 100.0 % Test CRC 90FB74AC Copy CRC 90FB74AC Accurately ripped (confidence 2) [88C59D48] Copy OK

Track 12

Filename C:\Users\Bishop\Desktop\Elton John - The Road To El Dorado.(2000.SKG.EU).wv\12. Cheldorado.wav

Pre-gap length 0:00:01.43

Peak level 99.6 % Track quality 100.0 % Test CRC E460FEC1 Copy CRC E460FEC1 Accurately ripped (confidence 2) [39E32CE2] Copy OK

Track 13

Filename C:\Users\Bishop\Desktop\Elton John - The Road To El Dorado.(2000.SKG.EU).wv\13. The Brig.wav

Peak level 98.8 % Track quality 99.9 % Test CRC FA7FF9CF Copy CRC FA7FF9CF Accurately ripped (confidence 2) [F009E37C] Copy OK

Track 14

Filename C:\Users\Bishop\Desktop\Elton John - The Road To El Dorado.(2000.SKG.EU).wv\14. Wonders Of The New World.wav

Peak level 100.0 % Track quality 100.0 % Test CRC F95BFC4C Copy CRC F95BFC4C Accurately ripped (confidence 2) [E1B1F808] Copy OK

All tracks accurately ripped

No errors occurred

End of status report
REM GENRE SoundtrackREM DATE 2000REM DISCID C50E960EREM COMMENT "ExactAudioCopy v0.99pb5"PERFORMER "Elton John"TITLE "The Road To El Dorado.(SKG.EU)"FILE "01. El Dorado.wav" WAVE TRACK 01 AUDIO TITLE "01. El Dorado" PERFORMER "Elton John" INDEX 01 00:00:00FILE "02. Someday Out Of The Blue (Theme From El Dorado).wav" WAVE TRACK 02 AUDIO TITLE "02. Someday Out Of The Blue (Theme From El Dorado)" PERFORMER "Elton John" INDEX 01 00:00:00FILE "03. Without Question.wav" WAVE TRACK 03 AUDIO TITLE "03. Without Question" PERFORMER "Elton John" INDEX 01 00:00:00FILE "04. Friends Never Say Goodbye.wav" WAVE TRACK 04 AUDIO TITLE "04. Friends Never Say Goodbye" PERFORMER "Elton John" INDEX 01 00:00:00FILE "05. The Trail We Blaze.wav" WAVE TRACK 05 AUDIO TITLE "05. The Trail We Blaze" PERFORMER "Elton John" INDEX 01 00:00:00FILE "06. 16th Century Man.wav" WAVE TRACK 06 AUDIO TITLE "06. 16th Century Man" PERFORMER "Elton John" INDEX 01 00:00:00FILE "07. The Panic In Me.wav" WAVE TRACK 07 AUDIO TITLE "07. The Panic In Me" PERFORMER "Elton John" INDEX 01 00:00:00FILE "08. It''s Tough To Be A God (Duet With Randy Newman).wav" WAVE TRACK 08 AUDIO TITLE "08. It''s Tough To Be A God (Duet With Randy Newman)" PERFORMER "Elton John" INDEX 01 00:00:00FILE "09. Trust Me.wav" WAVE TRACK 09 AUDIO TITLE "09. Trust Me" PERFORMER "Elton John" INDEX 01 00:00:00FILE "10. My Heart Dances.wav" WAVE TRACK 10 AUDIO TITLE "10. My Heart Dances" PERFORMER "Elton John" INDEX 01 00:00:00FILE "11. Queen Of Cities.wav" WAVE TRACK 11 AUDIO TITLE "11. Queen Of Cities" PERFORMER "Elton John" INDEX 01 00:00:00 TRACK 12 AUDIO TITLE "12. Cheldorado" PERFORMER "Elton John" INDEX 00 03:54:67FILE "12. Cheldorado.wav" WAVE INDEX 01 00:00:00FILE "13. The Brig.wav" WAVE TRACK 13 AUDIO TITLE "13. The Brig" PERFORMER "Elton John" INDEX 01 00:00:00FILE "14. Wonders Of The New World.wav" WAVE TRACK 14 AUDIO TITLE "14. Wonders Of The New World" PERFORMER "Elton John" INDEX 01 00:00:00


Трекер:  [ 13-Май-2013 15:24 ]

  

Скачать .torrent

Размер .torrent файла 19 KB


Размер: 463 MB
Хэш (hash) релиза: 5138b81e9eefc39b56e95252e9c1804cfde16a34

Торренты, похожие на The Road To El Dorado скачать торрент

Форум Название Автор Размер S L Добавлен
Саундтреки к фильмам и мультфильмам (lossless) ·· (Soundtracks) Elton John - The Road To El Dorado - (2000)[FLAC-EAC-CUE] - 2000, FLAC (tracks), lossless Galfimbul 430863454411 MB 0 0 1292268927

22:35

13-Дек-10

Саундтреки к фильмам и мультфильмам (mp3) ·· (Soundtrack) Elton John - The Road To El Dorado / Дорога на Эльдорадо - 2000, MP3 (tracks), 320 kbps Galfimbul 149427705143 MB 0 0 1292265806

21:43

13-Дек-10

bot

Топик был перенесен в форум Саундтреки к фильмам и мультфильмам (lossless)

Перенес Galfimbul

Хотите добавить комментарий к записи скачать торрент The Road To El Dorado

!Обратная связь