Скачать через торрент музыку Кулик The Sandpiper бесплатно без регистрации torrent

Если у вас наблюдаются проблемы со скриншотами, переходом по ссылками, скачиванием торрентов - проблемы в блокировщике рекламы AdBlock. #хорошегоДня!


Статистика раздачи
Размер:  249 MB   |    Зарегистрирован:  4 года 4 месяца   |    .torrent скачан:  24 раза   |   
Раздают:  1  
   
Загрузка...
 
Автор Сообщение

Galfimbul

avatar Galfimbul


Кулик | The Sandpiper

Жанр: Score
Композитор: Johnny Mandel
Год выпуска диска: 1996
Год выпуска фильма: 1965
Страна-производитель диска: USA
Издатель (лейбл): Verve Records
Номер по каталогу: 531 229-2
Аудио кодек: FLAC (*.flac)
Тип рипа: tracks+.cue
Битрейт аудио: lossless
Продолжительность: 00:41:33
Источник: Собственный рип
Наличие сканов в содержимом раздачи: да

Треклист:
1. The Shadow Of Your Smile (Vocal) (01:54) - Music by Johnny Mandel, Lyrics by Paul Francis Webster
2. Main Title (04:15)
3. Desire (02:27)
4. Seduction (05:00)
5. San Simeon (04:14)
6. Weekend Montage (04:28)
7. Baby Sandpiper (03:51)
8. Art Gallery (05:35)
9. End Title (02:36)
10. Bird Bath (02:14)
11. Weekend Montage (unedited version) (04:59) CD bonus track
Exact Audio Copy V1.0 beta 3 from 29. August 2011

EAC extraction logfile from 5. April 2013, 12:13

Johnny Mandel / The Sandpiper

Used drive : PLEXTOR DVDR PX-L890SA Adapter: 1 ID: 0

Read mode : SecureUtilize accurate stream : YesDefeat audio cache : YesMake use of C2 pointers : No

Read offset correction : 6Overread into Lead-In and Lead-Out : NoFill up missing offset samples with silence : YesDelete leading and trailing silent blocks : NoNull samples used in CRC calculations : YesUsed interface : Installed external ASPI interfaceGap handling : Appended to previous track

Used output format : User Defined EncoderSelected bitrate : 1024 kBit/sQuality : HighAdd ID3 tag : NoCommand line compressor : C:\Program Files\Exact Audio Copy\Flac\flac.exeAdditional command line options : -V -8 -T "Genre=%genre%" -T "Artist=%artist%" -T "Title=%title%" -T "Album=%albumtitle%" -T "Date=%year%" -T "Tracknumber=%tracknr%" -T "Comment=%comment%" %source%

TOC of the extracted CD

Track | Start | Length | Start sector | End sector --------------------------------------------------------- 1 | 0:00.00 | 1:57.47 | 0 | 8821 2 | 1:57.47 | 4:18.63 | 8822 | 28234 3 | 6:16.35 | 2:30.12 | 28235 | 39496 4 | 8:46.47 | 5:02.45 | 39497 | 62191 5 | 13:49.17 | 4:18.08 | 62192 | 81549 6 | 18:07.25 | 4:31.45 | 81550 | 101919 7 | 22:38.70 | 3:53.55 | 101920 | 119449 8 | 26:32.50 | 5:38.07 | 119450 | 144806 9 | 32:10.57 | 2:38.58 | 144807 | 156714 10 | 34:49.40 | 2:18.45 | 156715 | 167109 11 | 37:08.10 | 4:59.02 | 167110 | 189536

Track 1

Filename F:\torrent\The Sandpiper_Johnny Mandel\score\01 The shadow of your smile.wav

Pre-gap length 0:00:02.00

Peak level 95.4 % Extraction speed 4.1 X Track quality 100.0 % Test CRC 4EFD72AD Copy CRC 4EFD72AD Accurately ripped (confidence 1) [0A7C343A] (AR v1) Copy OK

Track 2

Filename F:\torrent\The Sandpiper_Johnny Mandel\score\02 Main title.wav

Pre-gap length 0:00:03.00

Peak level 85.8 % Extraction speed 5.2 X Track quality 100.0 % Test CRC 684E0F41 Copy CRC 684E0F41 Accurately ripped (confidence 1) [92EF4280] (AR v1) Copy OK

Track 3

Filename F:\torrent\The Sandpiper_Johnny Mandel\score\03 Desire.wav

Pre-gap length 0:00:03.00

Peak level 69.7 % Extraction speed 5.2 X Track quality 100.0 % Test CRC 5057B4D5 Copy CRC 5057B4D5 Accurately ripped (confidence 1) [57EFA26D] (AR v1) Copy OK

Track 4

Filename F:\torrent\The Sandpiper_Johnny Mandel\score\04 Seduction.wav

Pre-gap length 0:00:02.60

Peak level 72.4 % Extraction speed 6.3 X Track quality 100.0 % Test CRC 0AECF622 Copy CRC 0AECF622 Accurately ripped (confidence 1) [09718573] (AR v1) Copy OK

Track 5

Filename F:\torrent\The Sandpiper_Johnny Mandel\score\05 San simeon.wav

Pre-gap length 0:00:02.50

Peak level 98.0 % Extraction speed 6.7 X Track quality 100.0 % Test CRC 76B635A3 Copy CRC 76B635A3 Accurately ripped (confidence 1) [190E60E7] (AR v1) Copy OK

Track 6

Filename F:\torrent\The Sandpiper_Johnny Mandel\score\06 Weekend montage.wav

Pre-gap length 0:00:03.25

Peak level 87.6 % Extraction speed 6.4 X Track quality 99.9 % Test CRC C4580817 Copy CRC C4580817 Accurately ripped (confidence 1) [E750DB49] (AR v1) Copy OK

Track 7

Filename F:\torrent\The Sandpiper_Johnny Mandel\score\07 Baby sandpiper.wav

Pre-gap length 0:00:02.63

Peak level 66.3 % Extraction speed 6.5 X Track quality 99.9 % Test CRC EA5C8477 Copy CRC EA5C8477 Accurately ripped (confidence 1) [F5E24878] (AR v1) Copy OK

Track 8

Filename F:\torrent\The Sandpiper_Johnny Mandel\score\08 Art gallery.wav

Pre-gap length 0:00:02.35

Peak level 91.9 % Extraction speed 8.1 X Track quality 100.0 % Test CRC 864ED229 Copy CRC 864ED229 Accurately ripped (confidence 1) [20A5B411] (AR v1) Copy OK

Track 9

Filename F:\torrent\The Sandpiper_Johnny Mandel\score\09 End title.wav

Pre-gap length 0:00:02.47

Peak level 89.6 % Extraction speed 7.7 X Track quality 100.0 % Test CRC 20B7365F Copy CRC 20B7365F Accurately ripped (confidence 1) [AF14772D] (AR v1) Copy OK

Track 10

Filename F:\torrent\The Sandpiper_Johnny Mandel\score\10 Bird bath.wav

Pre-gap length 0:00:02.63

Peak level 55.0 % Extraction speed 7.6 X Track quality 100.0 % Test CRC 9752D1E1 Copy CRC 9752D1E1 Accurately ripped (confidence 1) [2C4B978E] (AR v1) Copy OK

Track 11

Filename F:\torrent\The Sandpiper_Johnny Mandel\score\11 Weekend montage (unedited version).wav

Pre-gap length 0:00:04.25

Peak level 87.6 % Extraction speed 8.7 X Track quality 100.0 % Test CRC 7F934C23 Copy CRC 7F934C23 Accurately ripped (confidence 1) [B7BC4C45] (AR v1) Copy OK

All tracks accurately ripped

No errors occurred

End of status report

==== Log checksum E14160C90BD2EC0558BAA7E601931A6525FFB69C301E0A940AC9B4E3A17AEB6D ====
REM GENRE SoundtrackREM DATE 1996REM DISCID 8B09DF0BREM COMMENT "ExactAudioCopy v1.0b3"CATALOG 0731453122925PERFORMER "Johnny Mandel"TITLE "The Sandpiper"FILE "01 The shadow of your smile.wav" WAVE TRACK 01 AUDIO TITLE "The shadow of your smile" PERFORMER "Johnny Mandel" ISRC USPR36509009 INDEX 01 00:00:00 TRACK 02 AUDIO TITLE "Main title" PERFORMER "Johnny Mandel" ISRC USPR36509010 INDEX 00 01:54:47FILE "02 Main title.wav" WAVE INDEX 01 00:00:00 TRACK 03 AUDIO TITLE "Desire" PERFORMER "Johnny Mandel" ISRC USPR36509011 INDEX 00 04:15:63FILE "03 Desire.wav" WAVE INDEX 01 00:00:00 TRACK 04 AUDIO TITLE "Seduction" PERFORMER "Johnny Mandel" ISRC USPR36509012 INDEX 00 02:27:27FILE "04 Seduction.wav" WAVE INDEX 01 00:00:00 TRACK 05 AUDIO TITLE "San simeon" PERFORMER "Johnny Mandel" ISRC USPR36509013 INDEX 00 04:59:70FILE "05 San simeon.wav" WAVE INDEX 01 00:00:00 TRACK 06 AUDIO TITLE "Weekend montage" PERFORMER "Johnny Mandel" ISRC USPR36509014 INDEX 00 04:14:58FILE "06 Weekend montage.wav" WAVE INDEX 01 00:00:00 TRACK 07 AUDIO TITLE "Baby sandpiper" PERFORMER "Johnny Mandel" ISRC USPR36509015 INDEX 00 04:28:57FILE "07 Baby sandpiper.wav" WAVE INDEX 01 00:00:00 TRACK 08 AUDIO TITLE "Art gallery" PERFORMER "Johnny Mandel" ISRC USPR36509016 INDEX 00 03:51:20FILE "08 Art gallery.wav" WAVE INDEX 01 00:00:00 TRACK 09 AUDIO TITLE "End title" PERFORMER "Johnny Mandel" ISRC USPR36509017 INDEX 00 05:35:35FILE "09 End title.wav" WAVE INDEX 01 00:00:00 TRACK 10 AUDIO TITLE "Bird bath" PERFORMER "Johnny Mandel" ISRC USPR36509018 INDEX 00 02:35:70FILE "10 Bird bath.wav" WAVE INDEX 01 00:00:00 TRACK 11 AUDIO TITLE "Weekend montage (unedited version)" PERFORMER "Johnny Mandel" ISRC USPR36509014 INDEX 00 02:14:20FILE "11 Weekend montage (unedited version).wav" WAVE INDEX 01 00:00:00
AUDIOCHECKER v2.0 beta (build 457) - by Dester - opdester@freemail.hu~~~~~~~~~~~~~~~~~~~~~~~~~~~~~~~~~~-=== НЕ РЕДАКТИРУЙТЕ ЭТОТ ФАЙЛ! ===-

Путь: ...\score

01 -=- 01 The shadow of your smile.flac -=- CDDA (100%)02 -=- 02 Main title.flac -=- CDDA (100%)03 -=- 03 Desire.flac -=- CDDA (100%)04 -=- 04 Seduction.flac -=- CDDA (100%)05 -=- 05 San simeon.flac -=- CDDA (100%)06 -=- 06 Weekend montage.flac -=- CDDA (99%)07 -=- 07 Baby sandpiper.flac -=- CDDA (100%)08 -=- 08 Art gallery.flac -=- CDDA (100%)09 -=- 09 End title.flac -=- CDDA (100%)10 -=- 10 Bird bath.flac -=- CDDA (100%)11 -=- 11 Weekend montage (unedited version).flac -=- CDDA (100%)

Сводка 99,91% CDDA

34305796


Трекер:  [ 13-Май-2013 15:24 ]

  

Скачать .torrent

Размер .torrent файла 21 KB


Размер: 249 MB
Хэш (hash) релиза: 997b73b8b9b85db1a9b03573533888b07cc633cf

bot

Топик был перенесен в форум Саундтреки к фильмам и мультфильмам (lossless)

Перенес Galfimbul

Хотите добавить комментарий к записи скачать торрент Кулик The Sandpiper

!Обратная связь