Скачать через торрент музыку Мой архитектор My Architect: A Sons Journey бесплатно без регистрации torrent

Если у вас наблюдаются проблемы со скриншотами, переходом по ссылками, скачиванием торрентов - проблемы в блокировщике рекламы AdBlock. #хорошегоДня!


Статистика раздачи
Размер:  245 MB   |    Зарегистрирован:  4 года 4 месяца   |    .torrent скачан:  22 раза   |   
Раздают:  1  
   
Загрузка...
 
Автор Сообщение

Galfimbul

avatar Galfimbul


Мой архитектор | My Architect: A Son''s Journey

Жанр: Score
Композитор: Joseph Vitarelli
Год выпуска диска: 2004
Год выпуска фильма: 2003
Страна-производитель диска: USA
Издатель (лейбл): Koch
Номер по каталогу: CR003 / KOC CD 5756
Аудио кодек: FLAC (*.flac)
Тип рипа: tracks+.cue
Битрейт аудио: lossless
Продолжительность: 00:40:49
Источник: Собственный рип
Наличие сканов в содержимом раздачи: да

Треклист:
1. Adagio (Opening Titles)
2. Penn Station
3. Beginnings...
4. The Mystery of Louis Kahn
6. "Happy Returns" - Bosworth Orchestra
7. Burns
8. Flying to Salk
9. The Brick
10. "Fanfare for the Common Man" - Stephen Gunzenhauser
11. American Hymn I
12. Travel Waltz
13. Letter to Harriet
14. Chez Louis
15. "Hayom T''Amtzeinu" - Cantor Benjamin Z. Maissner & The Holy Blossom Temple Singers
16. The Nomad
17. American Hymn II
18. Dhaka
19. Call to Prayer
20. Suite for Luis Kahn (End Credits)
Exact Audio Copy V1.0 beta 3 from 29. August 2011

EAC extraction logfile from 6. April 2013, 16:05

Joseph Vitarelli / My Architect

Used drive : PLEXTOR DVDR PX-L890SA Adapter: 1 ID: 0

Read mode : SecureUtilize accurate stream : YesDefeat audio cache : YesMake use of C2 pointers : No

Read offset correction : 6Overread into Lead-In and Lead-Out : NoFill up missing offset samples with silence : YesDelete leading and trailing silent blocks : NoNull samples used in CRC calculations : YesUsed interface : Installed external ASPI interfaceGap handling : Appended to previous track

Used output format : User Defined EncoderSelected bitrate : 1024 kBit/sQuality : HighAdd ID3 tag : NoCommand line compressor : C:\Program Files\Exact Audio Copy\Flac\flac.exeAdditional command line options : -V -8 -T "Genre=%genre%" -T "Artist=%artist%" -T "Title=%title%" -T "Album=%albumtitle%" -T "Date=%year%" -T "Tracknumber=%tracknr%" -T "Comment=%comment%" %source%

TOC of the extracted CD

Track | Start | Length | Start sector | End sector --------------------------------------------------------- 1 | 0:00.00 | 1:43.18 | 0 | 7742 2 | 1:43.18 | 1:25.74 | 7743 | 14191 3 | 3:09.17 | 0:33.44 | 14192 | 16710 4 | 3:42.61 | 3:46.52 | 16711 | 33712 5 | 7:29.38 | 2:25.61 | 33713 | 44648 6 | 9:55.24 | 3:01.35 | 44649 | 58258 7 | 12:56.59 | 1:21.38 | 58259 | 64371 8 | 14:18.22 | 2:00.72 | 64372 | 73443 9 | 16:19.19 | 1:27.12 | 73444 | 79980 10 | 17:46.31 | 2:52.01 | 79981 | 92881 11 | 20:38.32 | 1:50.09 | 92882 | 101140 12 | 22:28.41 | 0:45.38 | 101141 | 104553 13 | 23:14.04 | 1:14.18 | 104554 | 110121 14 | 24:28.22 | 2:24.06 | 110122 | 120927 15 | 26:52.28 | 1:45.17 | 120928 | 128819 16 | 28:37.45 | 1:37.10 | 128820 | 136104 17 | 30:14.55 | 1:55.69 | 136105 | 144798 18 | 32:10.49 | 2:05.60 | 144799 | 154233 19 | 34:16.34 | 2:01.22 | 154234 | 163330 20 | 36:17.56 | 4:40.11 | 163331 | 184341

Track 1

Filename F:\torrent\My Architect_Joseph Vitarelli\score\01 Adagio (opening titles).wav

Pre-gap length 0:00:02.00

Peak level 98.9 % Extraction speed 3.2 X Track quality 99.8 % Test CRC 488BF26F Copy CRC 488BF26F Track not present in AccurateRip database Copy OK

Track 2

Filename F:\torrent\My Architect_Joseph Vitarelli\score\02 Penn Station.wav

Pre-gap length 0:00:00.20

Peak level 83.2 % Extraction speed 3.0 X Track quality 99.8 % Test CRC 3BF7137A Copy CRC 3BF7137A Track not present in AccurateRip database Copy OK

Track 3

Filename F:\torrent\My Architect_Joseph Vitarelli\score\03 Beginnings.wav

Pre-gap length 0:00:02.00

Peak level 98.8 % Extraction speed 2.7 X Track quality 100.0 % Test CRC 5145E123 Copy CRC 5145E123 Track not present in AccurateRip database Copy OK

Track 4

Filename F:\torrent\My Architect_Joseph Vitarelli\score\04 The Mystery of Louis Kahn.wav

Pre-gap length 0:00:00.45

Peak level 98.8 % Extraction speed 5.4 X Track quality 100.0 % Test CRC 5C944AD7 Copy CRC 5C944AD7 Track not present in AccurateRip database Copy OK

Track 5

Filename F:\torrent\My Architect_Joseph Vitarelli\score\05 Arty Stride.wav

Peak level 88.1 % Extraction speed 5.4 X Track quality 100.0 % Test CRC AB18DFC6 Copy CRC AB18DFC6 Track not present in AccurateRip database Copy OK

Track 6

Filename F:\torrent\My Architect_Joseph Vitarelli\score\06 Happy Returns.wav

Peak level 98.8 % Extraction speed 5.9 X Track quality 100.0 % Test CRC 456DEBEF Copy CRC 456DEBEF Track not present in AccurateRip database Copy OK

Track 7

Filename F:\torrent\My Architect_Joseph Vitarelli\score\07 Burns.wav

Peak level 88.1 % Extraction speed 5.0 X Track quality 100.0 % Test CRC 03890754 Copy CRC 03890754 Track not present in AccurateRip database Copy OK

Track 8

Filename F:\torrent\My Architect_Joseph Vitarelli\score\08 Flying to Salk.wav

Pre-gap length 0:00:01.42

Peak level 98.8 % Extraction speed 5.7 X Track quality 100.0 % Test CRC 3CF349FC Copy CRC 3CF349FC Track not present in AccurateRip database Copy OK

Track 9

Filename F:\torrent\My Architect_Joseph Vitarelli\score\09 The Brick.wav

Peak level 88.1 % Extraction speed 5.4 X Track quality 100.0 % Test CRC B34A180E Copy CRC B34A180E Track not present in AccurateRip database Copy OK

Track 10

Filename F:\torrent\My Architect_Joseph Vitarelli\score\10 Fanfare for the Common Man.wav

Peak level 98.8 % Extraction speed 6.6 X Track quality 100.0 % Test CRC 45180FB1 Copy CRC 45180FB1 Track not present in AccurateRip database Copy OK

Track 11

Filename F:\torrent\My Architect_Joseph Vitarelli\score\11 American Hymn 1.wav

Peak level 98.8 % Extraction speed 6.2 X Track quality 100.0 % Test CRC 01395728 Copy CRC 01395728 Track not present in AccurateRip database Copy OK

Track 12

Filename F:\torrent\My Architect_Joseph Vitarelli\score\12 Travel Waltz.wav

Pre-gap length 0:00:00.20

Peak level 98.9 % Extraction speed 3.2 X Track quality 99.7 % Test CRC 4254488E Copy CRC 4254488E Track not present in AccurateRip database Copy OK

Track 13

Filename F:\torrent\My Architect_Joseph Vitarelli\score\13 Letter to Harriet.wav

Pre-gap length 0:00:00.49

Peak level 83.2 % Extraction speed 5.5 X Track quality 100.0 % Test CRC 8E3DE623 Copy CRC 8E3DE623 Track not present in AccurateRip database Copy OK

Track 14

Filename F:\torrent\My Architect_Joseph Vitarelli\score\14 Chez Louis.wav

Pre-gap length 0:00:00.10

Peak level 98.8 % Extraction speed 5.6 X Track quality 99.9 % Test CRC 670EBF98 Copy CRC 670EBF98 Track not present in AccurateRip database Copy OK

Track 15

Filename F:\torrent\My Architect_Joseph Vitarelli\score\15 Hayom T''Amtzeinu.wav

Peak level 98.9 % Extraction speed 5.2 X Track quality 99.8 % Test CRC EC491FC1 Copy CRC EC491FC1 Track not present in AccurateRip database Copy OK

Track 16

Filename F:\torrent\My Architect_Joseph Vitarelli\score\16 The Nomad.wav

Pre-gap length 0:00:02.35

Peak level 88.1 % Extraction speed 6.6 X Track quality 100.0 % Test CRC 36C638AB Copy CRC 36C638AB Track not present in AccurateRip database Copy OK

Track 17

Filename F:\torrent\My Architect_Joseph Vitarelli\score\17 American Hymn II.wav

Pre-gap length 0:00:00.45

Peak level 98.8 % Extraction speed 6.8 X Track quality 100.0 % Test CRC 058C5F8B Copy CRC 058C5F8B Track not present in AccurateRip database Copy OK

Track 18

Filename F:\torrent\My Architect_Joseph Vitarelli\score\18 Dhaka.wav

Peak level 98.9 % Extraction speed 5.9 X Track quality 99.9 % Test CRC B488CF63 Copy CRC B488CF63 Track not present in AccurateRip database Copy OK

Track 19

Filename F:\torrent\My Architect_Joseph Vitarelli\score\19 Call to Prayer.wav

Pre-gap length 0:00:03.58

Peak level 98.8 % Extraction speed 7.6 X Track quality 100.0 % Test CRC 258A93C9 Copy CRC 258A93C9 Track not present in AccurateRip database Copy OK

Track 20

Filename F:\torrent\My Architect_Joseph Vitarelli\score\20 Suite for Louis Kahn (end credits).wav

Pre-gap length 0:00:02.21

Peak level 98.9 % Extraction speed 8.6 X Track quality 100.0 % Test CRC B544F899 Copy CRC B544F899 Track not present in AccurateRip database Copy OK

None of the tracks are present in the AccurateRip database

No errors occurred

End of status report

==== Log checksum 4D9F3A238EC2B9E8DF5C4217A74E0840CAC603038A345625EE59EB29C5DC364D ====
REM GENRE ScoreREM DATE 2004REM DISCID 0E099914REM COMMENT "ExactAudioCopy v1.0b3"PERFORMER "Joseph Vitarelli"TITLE "My Architect"FILE "01 Adagio (opening titles).wav" WAVE TRACK 01 AUDIO TITLE "Adagio (opening titles)" PERFORMER "Joseph Vitarelli" ISRC USKO10404750 FLAGS DCP INDEX 01 00:00:00 TRACK 02 AUDIO TITLE "Penn Station" PERFORMER "Joseph Vitarelli" ISRC USKO10404751 FLAGS DCP INDEX 00 01:42:73FILE "02 Penn Station.wav" WAVE INDEX 01 00:00:00 TRACK 03 AUDIO TITLE "Beginnings" PERFORMER "Joseph Vitarelli" ISRC USKO10404752 FLAGS DCP INDEX 00 01:23:74FILE "03 Beginnings.wav" WAVE INDEX 01 00:00:00 TRACK 04 AUDIO TITLE "The Mystery of Louis Kahn" PERFORMER "Joseph Vitarelli" ISRC USKO10404753 FLAGS DCP INDEX 00 00:32:74FILE "04 The Mystery of Louis Kahn.wav" WAVE INDEX 01 00:00:00FILE "05 Arty Stride.wav" WAVE TRACK 05 AUDIO TITLE "Arty Stride" PERFORMER "Joseph Vitarelli" ISRC USKO10404754 FLAGS DCP INDEX 01 00:00:00FILE "06 Happy Returns.wav" WAVE TRACK 06 AUDIO TITLE "Happy Returns" PERFORMER "Joseph Vitarelli" ISRC USKO10404755 FLAGS DCP INDEX 01 00:00:00FILE "07 Burns.wav" WAVE TRACK 07 AUDIO TITLE "Burns" PERFORMER "Joseph Vitarelli" ISRC USKO10404756 FLAGS DCP INDEX 01 00:00:00 TRACK 08 AUDIO TITLE "Flying to Salk" PERFORMER "Joseph Vitarelli" ISRC USKO10404757 FLAGS DCP INDEX 00 01:19:71FILE "08 Flying to Salk.wav" WAVE INDEX 01 00:00:00FILE "09 The Brick.wav" WAVE TRACK 09 AUDIO TITLE "The Brick" PERFORMER "Joseph Vitarelli" ISRC USKO10404758 FLAGS DCP INDEX 01 00:00:00FILE "10 Fanfare for the Common Man.wav" WAVE TRACK 10 AUDIO TITLE "Fanfare for the Common Man" PERFORMER "Joseph Vitarelli" ISRC USKO10404759 FLAGS DCP INDEX 01 00:00:00FILE "11 American Hymn 1.wav" WAVE TRACK 11 AUDIO TITLE "American Hymn 1" PERFORMER "Joseph Vitarelli" ISRC USKO10404760 FLAGS DCP INDEX 01 00:00:00 TRACK 12 AUDIO TITLE "Travel Waltz" PERFORMER "Joseph Vitarelli" ISRC USKO10404761 FLAGS DCP INDEX 00 01:49:64FILE "12 Travel Waltz.wav" WAVE INDEX 01 00:00:00 TRACK 13 AUDIO TITLE "Letter to Harriet" PERFORMER "Joseph Vitarelli" ISRC USKO10404762 FLAGS DCP INDEX 00 00:44:64FILE "13 Letter to Harriet.wav" WAVE INDEX 01 00:00:00 TRACK 14 AUDIO TITLE "Chez Louis" PERFORMER "Joseph Vitarelli" ISRC USKO10404763 FLAGS DCP INDEX 00 01:14:08FILE "14 Chez Louis.wav" WAVE INDEX 01 00:00:00FILE "15 Hayom T''Amtzeinu.wav" WAVE TRACK 15 AUDIO TITLE "Hayom T''Amtzeinu" PERFORMER "Joseph Vitarelli" ISRC USKO10404764 FLAGS DCP INDEX 01 00:00:00 TRACK 16 AUDIO TITLE "The Nomad" PERFORMER "Joseph Vitarelli" ISRC USKO10404765 FLAGS DCP INDEX 00 01:42:57FILE "16 The Nomad.wav" WAVE INDEX 01 00:00:00 TRACK 17 AUDIO TITLE "American Hymn II" PERFORMER "Joseph Vitarelli" ISRC USKO10404766 FLAGS DCP INDEX 00 01:36:40FILE "17 American Hymn II.wav" WAVE INDEX 01 00:00:00FILE "18 Dhaka.wav" WAVE TRACK 18 AUDIO TITLE "Dhaka" PERFORMER "Joseph Vitarelli" ISRC USKO10404767 FLAGS DCP INDEX 01 00:00:00 TRACK 19 AUDIO TITLE "Call to Prayer" PERFORMER "Joseph Vitarelli" ISRC USKO10404768 FLAGS DCP INDEX 00 02:02:02FILE "19 Call to Prayer.wav" WAVE INDEX 01 00:00:00 TRACK 20 AUDIO TITLE "Suite for Louis Kahn (end credits)" PERFORMER "Joseph Vitarelli" ISRC USKO10404769 FLAGS DCP INDEX 00 01:59:01FILE "20 Suite for Louis Kahn (end credits).wav" WAVE INDEX 01 00:00:00
AUDIOCHECKER v2.0 beta (build 457) - by Dester - opdester@freemail.hu~~~~~~~~~~~~~~~~~~~~~~~~~~~~~~~~~~-=== НЕ РЕДАКТИРУЙТЕ ЭТОТ ФАЙЛ! ===-

Путь: ...\score

01 -=- 01 Adagio (opening titles).flac -=- CDDA (100%)02 -=- 02 Penn Station.flac -=- CDDA (100%)03 -=- 03 Beginnings.flac -=- CDDA (100%)04 -=- 04 The Mystery of Louis Kahn.flac -=- CDDA (100%)05 -=- 05 Arty Stride.flac -=- CDDA (100%)06 -=- 06 Happy Returns.flac -=- CDDA (100%)07 -=- 07 Burns.flac -=- CDDA (100%)08 -=- 08 Flying to Salk.flac -=- CDDA (100%)09 -=- 09 The Brick.flac -=- CDDA (100%)10 -=- 10 Fanfare for the Common Man.flac -=- CDDA (100%)11 -=- 11 American Hymn 1.flac -=- CDDA (100%)12 -=- 12 Travel Waltz.flac -=- CDDA (76%)13 -=- 13 Letter to Harriet.flac -=- CDDA (100%)14 -=- 14 Chez Louis.flac -=- CDDA (100%)15 -=- 15 Hayom T''Amtzeinu.flac -=- CDDA (100%)16 -=- 16 The Nomad.flac -=- CDDA (99%)17 -=- 17 American Hymn II.flac -=- CDDA (100%)18 -=- 18 Dhaka.flac -=- CDDA (86%)19 -=- 19 Call to Prayer.flac -=- CDDA (100%)20 -=- 20 Suite for Louis Kahn (end credits).flac -=- CDDA (100%)

Сводка 98,05% CDDA

226848292


Трекер:  [ 13-Май-2013 15:24 ]

  

Скачать .torrent

Размер .torrent файла 21 KB


Размер: 245 MB
Хэш (hash) релиза: 2365b7656cc1037309a08005e88a8a749035db15

bot

Топик был перенесен в форум Саундтреки к фильмам и мультфильмам (lossless)

Перенес Galfimbul

Хотите добавить комментарий к записи скачать торрент Мой архитектор My Architect: A Sons Journey

!Обратная связь