Скачать через торрент музыку Обливион Oblivion бесплатно без регистрации torrent

Если у вас наблюдаются проблемы со скриншотами, переходом по ссылками, скачиванием торрентов - проблемы в блокировщике рекламы AdBlock. #хорошегоДня!


Статистика раздачи
Размер:  349 MB   |    Зарегистрирован:  4 года 4 месяца   |    .torrent скачан:  64 раза   |   
Раздают:  1  
   
Загрузка...
 
Автор Сообщение

Galfimbul

avatar Galfimbul


Обливион / Oblivion


Жанр: Score || Композитор: Anthony Gonzalez & Joseph Trapanese || Год выпуска диска: 2013 || Страна-производитель диска: США || Аудио кодек: FLAC (*.flac) || Тип рипа: tracks+.cue || Битрейт аудио: lossless || Продолжительность: 01:09:16 || Источник: What.cd || Наличие сканов в содержимом раздачи: нет
Треклист:
01. Jack''s Dream [01:23]
02. Waking Up [04:09]
03. Tech 49 [05:59]
04. StarWaves [03:41]
05. Odyssey Rescue [04:09]
06. Earth 2077 [02:23]
07. Losing Control [03:56]
08. Canyon Battle [05:58]
09. Radiation Zone [04:12]
10. You Can''t Save Her [04:56]
11. Raven Rock [04:34]
12. I''m Sending You Away [05:38]
13. Ashes of Our Fathers [03:31]
14. Temples of Our Gods [03:14]
15. Fearful Odds [03:10]
16. Undimmed By Time, Unbound By Death [02:27]
17. Oblivion (feat. Susanne Sundfor) [05:57]
X Lossless Decoder version 20130127 (142.3)

XLD extraction logfile from 2013-04-11 18:44:23 +0200

M83, Anthony Gonzalez, Joseph Trapanese / Oblivion (Original Motion Picture Soundtrack)

Used drive : MATSHITA DVD-R UJ-8A8 (revision HB14)Media type : Pressed CD

Ripper mode : XLD Secure RipperDisable audio cache : OK for the drive with a cache less than 1375KiBMake use of C2 pointers : NORead offset correction : 102Max retry count : 20Gap status : Analyzed, Appended (except HTOA)

TOC of the extracted CD Track | Start | Length | Start sector | End sector --------------------------------------------------------- 1 | 00:00:00 | 01:22:43 | 0 | 6192 2 | 01:22:43 | 04:09:24 | 6193 | 24891 3 | 05:31:67 | 05:58:46 | 24892 | 51787 4 | 11:30:38 | 03:41:01 | 51788 | 68363 5 | 15:11:39 | 04:08:65 | 68364 | 87028 6 | 19:20:29 | 02:22:70 | 87029 | 97748 7 | 21:43:24 | 03:56:19 | 97749 | 115467 8 | 25:39:43 | 05:57:51 | 115468 | 142293 9 | 31:37:19 | 04:11:62 | 142294 | 161180 10 | 35:49:06 | 04:56:14 | 161181 | 183394 11 | 40:45:20 | 04:33:70 | 183395 | 203939 12 | 45:19:15 | 05:38:07 | 203940 | 229296 13 | 50:57:22 | 03:30:57 | 229297 | 245103 14 | 54:28:04 | 03:14:20 | 245104 | 259673 15 | 57:42:24 | 03:09:58 | 259674 | 273906 16 | 60:52:07 | 02:26:43 | 273907 | 284899 17 | 63:18:50 | 05:56:50 | 284900 | 311649

AccurateRip Summary Disc not found in AccurateRip DB.

All Tracks Album gain : -6.63 dB Peak : 0.972992 Statistics Read error : 0 Jitter error (maybe fixed) : 0 Retry sector count : 0 Damaged sector count : 0

Track 01 Filename : /Users/Shared/M83, Anthony Gonzalez, Joseph Trapanese - Oblivion (Original Motion Picture Soundtrack) - 2013 (CD FLAC Lossless)/01 Jack''s Dream.flac Pre-gap length : 00:02:00

Track gain : -0.56 dB Peak : 0.944092 CRC32 hash (test run) : CB240FAA CRC32 hash : CB240FAA CRC32 hash (skip zero) : 1FB43E22 AccurateRip v1 signature : C89F95A0 AccurateRip v2 signature : CCA2D75E ->Track not present in AccurateRip database. Statistics Read error : 0 Jitter error (maybe fixed) : 0 Retry sector count : 0 Damaged sector count : 0

Track 02 Filename : /Users/Shared/M83, Anthony Gonzalez, Joseph Trapanese - Oblivion (Original Motion Picture Soundtrack) - 2013 (CD FLAC Lossless)/02 Waking Up.flac

Track gain : -6.81 dB Peak : 0.948059 CRC32 hash (test run) : DD2E2DA8 CRC32 hash : DD2E2DA8 CRC32 hash (skip zero) : B7BFD9C6 AccurateRip v1 signature : 5461CB4D AccurateRip v2 signature : 239CC883 ->Track not present in AccurateRip database. Statistics Read error : 0 Jitter error (maybe fixed) : 0 Retry sector count : 0 Damaged sector count : 0

Track 03 Filename : /Users/Shared/M83, Anthony Gonzalez, Joseph Trapanese - Oblivion (Original Motion Picture Soundtrack) - 2013 (CD FLAC Lossless)/03 Tech 49.flac

Track gain : -5.90 dB Peak : 0.951721 CRC32 hash (test run) : C3A3DA8B CRC32 hash : C3A3DA8B CRC32 hash (skip zero) : FF3B3086 AccurateRip v1 signature : 5292B57D AccurateRip v2 signature : 47E9B6D2 ->Track not present in AccurateRip database. Statistics Read error : 0 Jitter error (maybe fixed) : 0 Retry sector count : 0 Damaged sector count : 0

Track 04 Filename : /Users/Shared/M83, Anthony Gonzalez, Joseph Trapanese - Oblivion (Original Motion Picture Soundtrack) - 2013 (CD FLAC Lossless)/04 Starwaves.flac

Track gain : -7.43 dB Peak : 0.948151 CRC32 hash (test run) : B5CDDB90 CRC32 hash : B5CDDB90 CRC32 hash (skip zero) : 1D41361F AccurateRip v1 signature : A5527B70 AccurateRip v2 signature : F42E84DA ->Track not present in AccurateRip database. Statistics Read error : 0 Jitter error (maybe fixed) : 0 Retry sector count : 0 Damaged sector count : 0

Track 05 Filename : /Users/Shared/M83, Anthony Gonzalez, Joseph Trapanese - Oblivion (Original Motion Picture Soundtrack) - 2013 (CD FLAC Lossless)/05 Odyssey Rescue.flac

Track gain : -4.21 dB Peak : 0.949066 CRC32 hash (test run) : B9C75B4A CRC32 hash : B9C75B4A CRC32 hash (skip zero) : EB763B8D AccurateRip v1 signature : 703752C0 AccurateRip v2 signature : 03E60E48 ->Track not present in AccurateRip database. Statistics Read error : 0 Jitter error (maybe fixed) : 0 Retry sector count : 0 Damaged sector count : 0

Track 06 Filename : /Users/Shared/M83, Anthony Gonzalez, Joseph Trapanese - Oblivion (Original Motion Picture Soundtrack) - 2013 (CD FLAC Lossless)/06 Earth 2077.flac

Track gain : -6.35 dB Peak : 0.958313 CRC32 hash (test run) : 547B3FE7 CRC32 hash : 547B3FE7 CRC32 hash (skip zero) : 2C7C914C AccurateRip v1 signature : AAEF98F4 AccurateRip v2 signature : E6F80587 ->Track not present in AccurateRip database. Statistics Read error : 0 Jitter error (maybe fixed) : 0 Retry sector count : 0 Damaged sector count : 0

Track 07 Filename : /Users/Shared/M83, Anthony Gonzalez, Joseph Trapanese - Oblivion (Original Motion Picture Soundtrack) - 2013 (CD FLAC Lossless)/07 Losing Control.flac

Track gain : -6.21 dB Peak : 0.946014 CRC32 hash (test run) : 199E3C03 CRC32 hash : 199E3C03 CRC32 hash (skip zero) : B26E7A77 AccurateRip v1 signature : 36A16528 AccurateRip v2 signature : 997BB0FD ->Track not present in AccurateRip database. Statistics Read error : 0 Jitter error (maybe fixed) : 0 Retry sector count : 0 Damaged sector count : 0

Track 08 Filename : /Users/Shared/M83, Anthony Gonzalez, Joseph Trapanese - Oblivion (Original Motion Picture Soundtrack) - 2013 (CD FLAC Lossless)/08 Canyon Battle.flac

Track gain : -7.23 dB Peak : 0.965820 CRC32 hash (test run) : B6BBECE0 CRC32 hash : B6BBECE0 CRC32 hash (skip zero) : 17B26D1E AccurateRip v1 signature : F613EF7C AccurateRip v2 signature : C5D1B4E5 ->Track not present in AccurateRip database. Statistics Read error : 0 Jitter error (maybe fixed) : 0 Retry sector count : 0 Damaged sector count : 0

Track 09 Filename : /Users/Shared/M83, Anthony Gonzalez, Joseph Trapanese - Oblivion (Original Motion Picture Soundtrack) - 2013 (CD FLAC Lossless)/09 Radiation Zone.flac

Track gain : -6.04 dB Peak : 0.967926 CRC32 hash (test run) : A0443A49 CRC32 hash : A0443A49 CRC32 hash (skip zero) : 63A4AEE4 AccurateRip v1 signature : 93B49CCA AccurateRip v2 signature : 00D67796 ->Track not present in AccurateRip database. Statistics Read error : 0 Jitter error (maybe fixed) : 0 Retry sector count : 0 Damaged sector count : 0

Track 10 Filename : /Users/Shared/M83, Anthony Gonzalez, Joseph Trapanese - Oblivion (Original Motion Picture Soundtrack) - 2013 (CD FLAC Lossless)/10 You Can''t Save Her.flac

Track gain : -5.09 dB Peak : 0.946259 CRC32 hash (test run) : B00808E2 CRC32 hash : B00808E2 CRC32 hash (skip zero) : 2DADA038 AccurateRip v1 signature : 68105DBD AccurateRip v2 signature : 1C291BDB ->Track not present in AccurateRip database. Statistics Read error : 0 Jitter error (maybe fixed) : 0 Retry sector count : 0 Damaged sector count : 0

Track 11 Filename : /Users/Shared/M83, Anthony Gonzalez, Joseph Trapanese - Oblivion (Original Motion Picture Soundtrack) - 2013 (CD FLAC Lossless)/11 Raven Rock.flac

Track gain : -4.95 dB Peak : 0.944305 CRC32 hash (test run) : 640E01EA CRC32 hash : 640E01EA CRC32 hash (skip zero) : 45372719 AccurateRip v1 signature : 99B55434 AccurateRip v2 signature : A0D6BB6E ->Track not present in AccurateRip database. Statistics Read error : 0 Jitter error (maybe fixed) : 0 Retry sector count : 0 Damaged sector count : 0

Track 12 Filename : /Users/Shared/M83, Anthony Gonzalez, Joseph Trapanese - Oblivion (Original Motion Picture Soundtrack) - 2013 (CD FLAC Lossless)/12 I''m Sending You Away.flac

Track gain : -5.36 dB Peak : 0.950623 CRC32 hash (test run) : 7158667B CRC32 hash : 7158667B CRC32 hash (skip zero) : 37D6E0F6 AccurateRip v1 signature : 9C273631 AccurateRip v2 signature : 8C32E688 ->Track not present in AccurateRip database. Statistics Read error : 0 Jitter error (maybe fixed) : 0 Retry sector count : 0 Damaged sector count : 0

Track 13 Filename : /Users/Shared/M83, Anthony Gonzalez, Joseph Trapanese - Oblivion (Original Motion Picture Soundtrack) - 2013 (CD FLAC Lossless)/13 Ashes Of Our Fathers.flac

Track gain : -6.00 dB Peak : 0.949615 CRC32 hash (test run) : F62578DE CRC32 hash : F62578DE CRC32 hash (skip zero) : 614216CA AccurateRip v1 signature : D7348FBC AccurateRip v2 signature : 1904F077 ->Track not present in AccurateRip database. Statistics Read error : 0 Jitter error (maybe fixed) : 0 Retry sector count : 0 Damaged sector count : 0

Track 14 Filename : /Users/Shared/M83, Anthony Gonzalez, Joseph Trapanese - Oblivion (Original Motion Picture Soundtrack) - 2013 (CD FLAC Lossless)/14 Temples Of Our Gods.flac

Track gain : -7.93 dB Peak : 0.945435 CRC32 hash (test run) : 21CE065D CRC32 hash : 21CE065D CRC32 hash (skip zero) : 70652DCB AccurateRip v1 signature : 3CC7F867 AccurateRip v2 signature : 68E80181 ->Track not present in AccurateRip database. Statistics Read error : 0 Jitter error (maybe fixed) : 0 Retry sector count : 0 Damaged sector count : 0

Track 15 Filename : /Users/Shared/M83, Anthony Gonzalez, Joseph Trapanese - Oblivion (Original Motion Picture Soundtrack) - 2013 (CD FLAC Lossless)/15 Fearful Odds.flac

Track gain : -6.47 dB Peak : 0.946136 CRC32 hash (test run) : D2AA7BBD CRC32 hash : D2AA7BBD CRC32 hash (skip zero) : A1350203 AccurateRip v1 signature : 8F607CE9 AccurateRip v2 signature : CCAAA083 ->Track not present in AccurateRip database. Statistics Read error : 0 Jitter error (maybe fixed) : 0 Retry sector count : 0 Damaged sector count : 0

Track 16 Filename : /Users/Shared/M83, Anthony Gonzalez, Joseph Trapanese - Oblivion (Original Motion Picture Soundtrack) - 2013 (CD FLAC Lossless)/16 Undimmed By Time, Unbound By Death.flac

Track gain : -1.88 dB Peak : 0.863251 CRC32 hash (test run) : CF24CEC6 CRC32 hash : CF24CEC6 CRC32 hash (skip zero) : 800649E2 AccurateRip v1 signature : E7E16042 AccurateRip v2 signature : C3175EB0 ->Track not present in AccurateRip database. Statistics Read error : 0 Jitter error (maybe fixed) : 0 Retry sector count : 0 Damaged sector count : 0

Track 17 Filename : /Users/Shared/M83, Anthony Gonzalez, Joseph Trapanese - Oblivion (Original Motion Picture Soundtrack) - 2013 (CD FLAC Lossless)/17 Oblivion (feat. Susanne Sundfør).flac

Track gain : -7.44 dB Peak : 0.972992 CRC32 hash (test run) : F703746F CRC32 hash : F703746F CRC32 hash (skip zero) : 3D8B0C0E AccurateRip v1 signature : 2B7B0705 AccurateRip v2 signature : 07657F1E ->Track not present in AccurateRip database. Statistics Read error : 0 Jitter error (maybe fixed) : 0 Retry sector count : 0 Damaged sector count : 0

No errors occurred

End of status report
TITLE "Oblivion (Original Motion Picture Soundtrack)"PERFORMER "M83, Anthony Gonzalez, Joseph Trapanese"REM DATE "2013"REM DISCNUMBER 1REM TOTALDISCS 1REM DISCID DF103B11REM REPLAYGAIN_ALBUM_GAIN -6.63 dBREM REPLAYGAIN_ALBUM_PEAK 0.972992REM COMPILATION TRUEFILE "01 Jack''s Dream.flac" WAVE TRACK 01 AUDIO TITLE "Jack''s Dream" ISRC USQ4E1300597 REM REPLAYGAIN_TRACK_GAIN -0.56 dB REM REPLAYGAIN_TRACK_PEAK 0.944092 INDEX 01 00:00:00FILE "02 Waking Up.flac" WAVE TRACK 02 AUDIO TITLE "Waking Up" ISRC USQ4E1300598 REM REPLAYGAIN_TRACK_GAIN -6.81 dB REM REPLAYGAIN_TRACK_PEAK 0.948059 INDEX 01 00:00:00FILE "03 Tech 49.flac" WAVE TRACK 03 AUDIO TITLE "Tech 49" ISRC USQ4E1300600 REM REPLAYGAIN_TRACK_GAIN -5.90 dB REM REPLAYGAIN_TRACK_PEAK 0.951721 INDEX 01 00:00:00FILE "04 Starwaves.flac" WAVE TRACK 04 AUDIO TITLE "Starwaves" ISRC USQ4E1300603 REM REPLAYGAIN_TRACK_GAIN -7.43 dB REM REPLAYGAIN_TRACK_PEAK 0.948151 INDEX 01 00:00:00FILE "05 Odyssey Rescue.flac" WAVE TRACK 05 AUDIO TITLE "Odyssey Rescue" ISRC USQ4E1300607 REM REPLAYGAIN_TRACK_GAIN -4.21 dB REM REPLAYGAIN_TRACK_PEAK 0.949066 INDEX 01 00:00:00FILE "06 Earth 2077.flac" WAVE TRACK 06 AUDIO TITLE "Earth 2077" ISRC USQ4E1300610 REM REPLAYGAIN_TRACK_GAIN -6.35 dB REM REPLAYGAIN_TRACK_PEAK 0.958313 INDEX 01 00:00:00FILE "07 Losing Control.flac" WAVE TRACK 07 AUDIO TITLE "Losing Control" ISRC USQ4E1300614 REM REPLAYGAIN_TRACK_GAIN -6.21 dB REM REPLAYGAIN_TRACK_PEAK 0.946014 INDEX 01 00:00:00FILE "08 Canyon Battle.flac" WAVE TRACK 08 AUDIO TITLE "Canyon Battle" ISRC USQ4E1300615 REM REPLAYGAIN_TRACK_GAIN -7.23 dB REM REPLAYGAIN_TRACK_PEAK 0.965820 INDEX 01 00:00:00FILE "09 Radiation Zone.flac" WAVE TRACK 09 AUDIO TITLE "Radiation Zone" ISRC USQ4E1300616 REM REPLAYGAIN_TRACK_GAIN -6.04 dB REM REPLAYGAIN_TRACK_PEAK 0.967926 INDEX 01 00:00:00FILE "10 You Can''t Save Her.flac" WAVE TRACK 10 AUDIO TITLE "You Can''t Save Her" ISRC USQ4E1300617 REM REPLAYGAIN_TRACK_GAIN -5.09 dB REM REPLAYGAIN_TRACK_PEAK 0.946259 INDEX 01 00:00:00FILE "11 Raven Rock.flac" WAVE TRACK 11 AUDIO TITLE "Raven Rock" ISRC USQ4E1300619 REM REPLAYGAIN_TRACK_GAIN -4.95 dB REM REPLAYGAIN_TRACK_PEAK 0.944305 INDEX 01 00:00:00FILE "12 I''m Sending You Away.flac" WAVE TRACK 12 AUDIO TITLE "I''m Sending You Away" ISRC USQ4E1300621 REM REPLAYGAIN_TRACK_GAIN -5.36 dB REM REPLAYGAIN_TRACK_PEAK 0.950623 INDEX 01 00:00:00FILE "13 Ashes Of Our Fathers.flac" WAVE TRACK 13 AUDIO TITLE "Ashes Of Our Fathers" REM REPLAYGAIN_TRACK_GAIN -6.00 dB REM REPLAYGAIN_TRACK_PEAK 0.949615 INDEX 01 00:00:00FILE "14 Temples Of Our Gods.flac" WAVE TRACK 14 AUDIO TITLE "Temples Of Our Gods" ISRC USQ4E1300623 REM REPLAYGAIN_TRACK_GAIN -7.93 dB REM REPLAYGAIN_TRACK_PEAK 0.945435 INDEX 01 00:00:00FILE "15 Fearful Odds.flac" WAVE TRACK 15 AUDIO TITLE "Fearful Odds" ISRC USQ4E1300624 REM REPLAYGAIN_TRACK_GAIN -6.47 dB REM REPLAYGAIN_TRACK_PEAK 0.946136 INDEX 01 00:00:00FILE "16 Undimmed By Time, Unbound By Death.flac" WAVE TRACK 16 AUDIO TITLE "Undimmed By Time, Unbound By Death" ISRC USQ4E1300625 REM REPLAYGAIN_TRACK_GAIN -1.88 dB REM REPLAYGAIN_TRACK_PEAK 0.863251 INDEX 01 00:00:00FILE "17 Oblivion (feat. Susanne Sundfør).flac" WAVE TRACK 17 AUDIO TITLE "Oblivion (feat. Susanne Sundfør)" ISRC USQ4E1300626 REM REPLAYGAIN_TRACK_GAIN -7.44 dB REM REPLAYGAIN_TRACK_PEAK 0.972992 INDEX 01 00:00:00

MP3: (Score) Обливион / Oblivion (by M83, Anthony Gonzalez & Joseph Trapanese) - 2013, MP3, 320 kbps
iTunes AAC [Deluxe Edition]: (Score) Обливион / Oblivion (Deluxe Edition) (by M83, Anthony Gonzalez & Joseph Trapanese) - 2013 [WEB], AAC (tracks), 256 kbps


Трекер:  [ 13-Май-2013 15:24 ]

  

Скачать .torrent

Размер .torrent файла 15 KB


Размер: 349 MB
Хэш (hash) релиза: 9fe293db72ca179877007e93496101b1f490365e

Торренты, похожие на Обливион Oblivion скачать торрент

Форум Название Автор Размер S L Добавлен
Саундтреки к фильмам и мультфильмам (mp3) ·· (Score) Обливион / Oblivion (by M83, Anthony Gonzalez & Joseph Trapanese) - 2013, MP3, 128 kbps Galfimbul 166808835159 MB 0 0 1365196762

00:19

6-Апр-13

bot

Топик был перенесен в форум Саундтреки к фильмам и мультфильмам (lossless)

Перенес Galfimbul

Хотите добавить комментарий к записи скачать торрент Обливион Oblivion

!Обратная связь