Скачать порно через торрент Issho ni Ecchi Isshoni Ecchi UnionPeer.org бесплатно онлайн HD качество

Скачать новое порно 2015, 2014 новинки через торрент UnionPeer.org

Порно торрент бесплатно ЮнионПир.орг

Если у вас наблюдаются проблемы со скриншотами, переходом по ссылками, скачиванием торрентов - проблемы в блокировщике рекламы AdBlock. #хорошегоДня!


Статистика раздачи
Размер:  2.59 GB   |    Зарегистрирован:  4 года 6 месяцев   |    .torrent скачан:  192 раза   |   
Раздают:  1  
   
Загрузка...
 
Автор Сообщение

Galfimbul

avatar Galfimbul


いっしょにエッチ | Issho ni Ecchi | Isshoni Ecchi | Давай займёмся сексом
Год выпуска: 2010
Страна: Япония
Жанр: footjob, incest, large breasts, masturbation, students, teachers, virgins, yuri
Продолжительность: >1 эп. 30 мин.
Субтитры: Отсутствуют
Цензура: Присутствует
Студия: Pink Pineapple
Описание:
After answering the summons of Momoka, the school nurse, the protagonist is forced to engage in various sexual acts with her.

Later, the protagonist accidentally witnesses Momoka's younger sister, Maron, masturbating. He is discovered and Maron counterattacks by stripping him and giving hand and foot jobs. One thing leads to another and he ends up taking her virginity.

Finally, the three of them go to a public bathhouse and end up in a threesome play.
Информационные ссылки: AniDB || MAL || World Art || ХентайМаг
Исходник: DVD-5
Видео: MPEG2 | NTSC | 16x9 | 720x480 | 9800 Kbps
Аудио JAP: AC-3 | 48000Hz | 192 Kbps | 2ch
01. OVA
General
Complete name : H:\VIDEO_TS\VTS_01_1.VOB
Format : MPEG-PS
File size : 1 024 MiB
Duration : 15mn 29s
Overall bit rate mode : Variable
Overall bit rate : 9 244 Kbps

Video
ID : 224 (0xE0)
Format : MPEG Video
Format version : Version 2
Format profile : Main@Main
Format settings, BVOP : Yes
Format settings, Matrix : Custom
Format settings, GOP : M=2, N=15
Duration : 15mn 29s
Bit rate mode : Variable
Bit rate : 8 868 Kbps
Maximum bit rate : 9 800 Kbps
Width : 720 pixels
Height : 480 pixels
Display aspect ratio : 16:9
Frame rate : 29.970 fps
Standard : NTSC
Color space : YUV
Chroma subsampling : 4:2:0
Bit depth : 8 bits
Scan type : Interlaced
Scan order : Top Field First
Compression mode : Lossy
Bits/(Pixel*Frame) : 0.856
Stream size : 982 MiB (96%)

Audio
ID : 189 (0xBD)-128 (0x80)
Format : AC-3
Format/Info : Audio Coding 3
Mode extension : CM (complete main)
Muxing mode : DVD-Video
Duration : 15mn 29s
Bit rate mode : Constant
Bit rate : 192 Kbps
Channel(s) : 2 channels
Channel positions : Front: L R
Sampling rate : 48.0 KHz
Bit depth : 16 bits
Compression mode : Lossy
Stream size : 21.3 MiB (2%)
Чем воспроизводить образ диска формата *.ISO

Трекер:  [ 22-Апр-2013 20:01 ]

  

Скачать .torrent

Размер .torrent файла 13 KB


Размер: 2.59 GB
Хэш (hash) релиза: 3c2637ae54e3e7866a80b97f14ed63c8afec08ec

Еще никто не оставлял запись к записи скачать торрент Issho ni Ecchi Isshoni Ecchi . Будь первым!

!Обратная связь