Скачать через торрент Не утруждай себя, Сасами-сан Sasami-san at Ganbaranai бесплатно Аниме Все серии на русском torrent

Если у вас наблюдаются проблемы со скриншотами, переходом по ссылками, скачиванием торрентов - проблемы в блокировщике рекламы AdBlock. #хорошегоДня!


Статистика раздачи
Размер:  1.23 GB   |    Зарегистрирован:  4 года 6 месяцев   |    .torrent скачан:  7 раз   |   
Раздают:  1  
   
Загрузка...
 
Автор Сообщение

Galfimbul

avatar Galfimbul



Год выпуска: 2013
Страна: Япония
Жанр: комедия
Продолжительность: 12 эп. по 25 мин.
Перевод:

русские субтитры от Nesitach & Stan WarHammer (полные/вспомогательные)
Озвучка:

двухголосая (муж./жен.) от Zendos & Eladiel (Anilibria)
двухголосая (муж./жен.) от Carrier88 & Orwald (ARRU)
Режиссер: Симбо Акиюки
Студия:
Описание:
Известно, что императоры Японии происходят от великой богини Аматэрасу. Но, по мнению ряда авторов, мужская линия императорской семьи, не прерывающаяся тысячи лет – лишь прикрытие, а на деле божественная сила передается по женской линии! Наследницы по прямой, принявшие родовое имя Цукуёми, испокон века жили в уединенных храмах и ради чистоты крови вступали в родственные браки. При этом женщины, чтобы «не расплескать» силу богини, должны были полностью отринуть земные страсти, а их братья с малолетства обучались истово служить сестрам-жрицам, а когда придет время… ну, вы поняли.

Но однажды система дала сбой, и в наше время наследница по имени Сасами, преодолев «промывку мозгов», попросту сбежала из храма вместе с братом Камиоми, чтобы жить, как обычные люди. Тронуть отступницу родичи не могут – ее защищает божество, но воспитание никуда не денешь, и на воле Сасами быстро превратилась в затворницу-хикикомори. Зачем напрягаться, если есть верный братец, который и покормит, и напоит, и в бане выпарит? Другое дело, что природа берет свое, и постепенно девушка начала втягиваться в мирскую жизнь, у нее появились самые обычные желания… а вот с ними надо быть осторожнее, с такой силой можно и мир уничтожить. Впрочем, пока существует Аматэрасу, за героиней есть кому присмотреть!
© Hollow, World Art
Информационные ссылки: AniDB || World Art || MAL
Качество: BDRip
Энкод: Winter - RG Pantheon
Тип видео: без хардсаба
Формат: mkv
Видео: x264 (Hi10p), 1280x720, ~2700 Kbps, 23.976 fps
Аудио JAP: Vorbis, 48000Hz, ~256 Kbps, 2ch
Аудио RUS 1-2: AC3, 48000Hz, ~192 Kbps, 2ch
01. I`ll Do My Best Starting Tomorrow
02. Home Security Officer
Общее
Уникальный идентификатор : 206464565506374776655171413157115118511 (0x9B53A100A9A9CBD7B748235AD788C3AF)
Полное имя : Z:\Anime\720p\Sasami-san Ganbaranai [BD] [720p]\[Winter] Sasami-san Ganbaranai 01 [BDrip 1280x720 x264 Vorbis].mkv
Формат : Matroska
Версия формата : Version 2
Размер файла : 496 Мбайт
Продолжительность : 24 м.
Режим общего битрейта : Переменный
Общий поток : 2867 Кбит/сек
Дата кодирования : UTC 2013-04-09 19:01:24
Программа кодирования : mkvmerge v2.9.8 (''C''est le bon'') built on Aug 13 2009 12:49:06
Библиотека кодирования : libebml v0.7.7 + libmatroska v0.8.1

Видео
Идентификатор : 1
Формат : AVC
Формат/Информация : Advanced Video Codec
Профиль формата : High 10@L4.1
Параметр CABAC формата : Да
Параметр ReFrames формата : 9 кадров
Идентификатор кодека : V_MPEG4/ISO/AVC
Продолжительность : 24 м.
Битрейт : 2554 Кбит/сек
Ширина : 1280 пикселей
Высота : 720 пикселей
Соотношение сторон : 16:9
Режим частоты кадров : Постоянный
Частота кадров : 23,976 кадра/сек
Цветовое пространство : YUV
Субдискретизация насыщенности : 4:2:0
Битовая глубина : 10 бит
Тип развёртки : Прогрессивная
Бит/(Пиксели*Кадры) : 0.116
Размер потока : 442 Мбайт (89%)
Библиотека кодирования : x264 core 125 r2200 999b753
Настройки программы : cabac=1 / ref=9 / deblock=1:-2:-2 / analyse=0x3:0x133 / me=umh / subme=9 / psy=1 / psy_rd=0.90:0.00 / mixed_ref=1 / me_range=24 / chroma_me=1 / trellis=2 / 8x8dct=1 / cqm=0 / deadzone=21,11 / fast_pskip=1 / chroma_qp_offset=-2 / threads=6 / lookahead_threads=1 / sliced_threads=0 / nr=0 / decimate=0 / interlaced=0 / bluray_compat=0 / constrained_intra=0 / bframes=8 / b_pyramid=2 / b_adapt=2 / b_bias=0 / direct=1 / weightb=1 / open_gop=0 / weightp=2 / keyint=250 / keyint_min=23 / scenecut=40 / intra_refresh=0 / rc=crf / mbtree=0 / crf=15.7 / qcomp=0.70 / qpmin=9 / qpmax=40 / qpstep=4 / ip_ratio=1.40 / pb_ratio=1.30 / aq=1:0.90
Default : Нет
Forced : Нет

Аудио
Идентификатор : 2
Формат : Vorbis
Параметр Floor формата : 1
Идентификатор кодека : A_VORBIS
Продолжительность : 24 м.
Вид битрейта : Переменный
Битрейт : 256 Кбит/сек
Каналы : 2 канала
Частота : 48,0 КГц
Метод сжатия : С потерями
Размер потока : 44,3 Мбайт (9%)
Библиотека кодирования : libVorbis (Omnipresent) (20120203 (Omnipresent))
Язык : Japanese
Default : Да
Forced : Нет




Трекер:  [ 12-Апр-2013 15:33 ]

  

Скачать .torrent

Размер .torrent файла 14 KB


Размер: 1.23 GB
Хэш (hash) релиза: 085f37c1703acd68b4565a34214194647ef0b09a
Подписка на обновления:

Еще никто не оставлял запись к записи скачать торрент Не утруждай себя, Сасами-сан Sasami-san at Ganbaranai . Будь первым!

!Обратная связь