Скачать порно через торрент futari no Tobari -Hikari and Tobaru the sticky Flight- UnionPeer.org бесплатно онлайн HD качество

Скачать новое порно 2015, 2014 новинки через торрент UnionPeer.org

Порно торрент бесплатно ЮнионПир.орг

Если у вас наблюдаются проблемы со скриншотами, переходом по ссылками, скачиванием торрентов - проблемы в блокировщике рекламы AdBlock. #хорошегоДня!


Статистика раздачи
Размер:  1.18 GB   |    Зарегистрирован:  4 года 3 месяца   |    .torrent скачан:  613 раз   |   
Раздают:  3  
   
Загрузка...
 
Автор Сообщение

Galfimbul

avatar Galfimbul



futari no Tobari -Hikari and Tobaru the sticky Flight-
ふたりのとばりっ~ヒカリととばるの[ぬきさし]ならない関係~
Дата релиза: 2013/04/05
Жанр: 3DCG, Oral, 69, Tsundere, Juices, Masturbation, Futanari/Dick girl, Stockings
Продолжительность: 31:42
Цензура: Есть

Язык: Японский
Издатель/Студия: MiMiA Cute
Качество видео: DLversion
Формат видео: WMV
Видео: Видео кодек: Windows Media Video 9 (WMV)
Аудио кодек: Windows Media Audio (WMA)
Видео: 1 280×720 ll 24.000 fps ll 5 000 Kbps
Аудио: Аудио : WMA ll 377 Kbps ll 2ch ll 44.1 KHz
General
Complete name : D:\Documents\Downloads\hentai\Gamerip\futarino_tobari\futarino_tobari.wmv
Format : Windows Media
File size : 1.18 GiB
Duration : 31mn 42s
Overall bit rate mode : Variable
Overall bit rate : 5 346 Kbps
Maximum Overall bit rate : 8 461 Kbps
Encoded date : UTC 2013-03-29 18:41:55.448

Video
ID : 2
Format : VC-1
Format profile : MP@HL
Codec ID : WMV3
Codec ID/Info : Windows Media Video 9
Codec ID/Hint : WMV3
Description of the codec : Windows Media Video 9 - Professional
Duration : 31mn 42s
Bit rate mode : Variable
Bit rate : 5 000 Kbps
Width : 1 280 pixels
Height : 720 pixels
Display aspect ratio : 16:9
Frame rate : 24.000 fps
Bit depth : 8 bits
Scan type : Progressive
Compression mode : Lossy
Bits/(Pixel*Frame) : 0.226
Stream size : 1.11 GiB (94%)
NumberOfFrames : 45642

Audio
ID : 1
Format : WMA
Format profile : Pro
Codec ID : 162
Codec ID/Info : Windows Media Audio
Description of the codec : Windows Media Audio 10 Professional - 440 kbps, 44 kHz, 2 channel 24 bit 2-pass VBR
Duration : 31mn 42s
Bit rate mode : Variable
Bit rate : 377 Kbps
Channel(s) : 2 channels
Sampling rate : 44.1 KHz
Bit depth : 24 bits
Stream size : 85.6 MiB (7%)
NumberOfFrames : 4380
Описание: MiA Cute presents... fnT-HatsF-
futari no Tobari -Hikari and Tobaru the sticky Flight-

* Tsundere futanari musume x Shota otoko no ko
* kissu, wanky, fellate, 69, anal stimulize, chinguri, and anal f*ck to the stretched limitz
* Maaaaassive hole-filling spunkloads of hot jizz mutual flights to heaven, HEAVEN

* Fully voiced performance

* Special wallpaper campaign (see text in product, Japanese language)

[CVs: Saaya Shino, Phan Masaki]
[Modeled polygon 3D bishoujo!?]
[3D movie with attentively designed cel anime]
[Professionally animated]

[303 shots]
[32 minutes]
[HD 720px resolution]
[Over 10 litres of semen (YMMV)]

* Please confirm compatibility with Windows Media Player demo movie
■ロリショタ男の娘 X ツンデレふたなり娘
キス、手コキ、フェラ、69、アナル責め、ちんずり、そして極限のアナルセックス
大量射精、中出し、ストーリーの中でキャラクターと一緒に味わえる一体感

■全編声優による生演技

■ストーリー仕立ての本格アニメ風作品

■壁紙更新キャンペーン
詳しくはデモ版、製品版添付のテキストをご覧ください

[CV 紫乃小文 誠樹ふぁん]

[本格3Dポリゴン美少女!?]

[セルアニメ調にこだわった3Dムービー]

[プロのアニメーターによる美麗エロリミテッドアニメーション]

[総カット数303]

[総尺32分]

[HD高画質(ハーフ720)]

[射精量10Lオーバー(当社調べ)]

※デモムービーにてWindowsMediaPlayerでの動作確認をお願いします
Ссылки:

ENG DLsite

DLsite.JAP

Трекер:  [ 22-Апр-2013 20:01 ]

  

Скачать .torrent

Размер .torrent файла 12 KB


Размер: 1.18 GB
Хэш (hash) релиза: 77e9ace159c6a27eef37ef4c6c1d2b918daf24fc

Еще никто не оставлял запись к записи скачать торрент futari no Tobari -Hikari and Tobaru the sticky Flight- . Будь первым!

!Обратная связь