Скачать через торрент музыку Общие правила оформления раздач в разделе Музыка бесплатно без регистрации torrent

Если у вас наблюдаются проблемы со скриншотами, переходом по ссылками, скачиванием торрентов - проблемы в блокировщике рекламы AdBlock. #хорошегоДня!


 
Автор Сообщение

Z@t

avatar Z@t


Общие правила оформления раздач в разделе Музыка.

1. При оформлении новой раздачи, обязательно используйте поиск по трекеру.
А также:
  • Не забывайте про то, что планируемая Вами раздача может оказаться в составе раздачи дискографии (коллекции) данного исполнителя/группы.
  • Производите поиск не только по названию альбома, но и по исполнителю/группе.
  • Помните, если Ваша раздача копирует уже имеющиеся на трекере по качеству или имеет более низкое качество, она будет удалена модератором раздела, без предупреждения.
  • Повтором не считается раздача в lossy-формате (MP3, WMA и т.д.), если существует аналогичная по музыкальному содержанию раздача в lossless-формате (FLAC, APE и т.д.).

2. Также обязательно соблюдать:

3. Данные правила не распространяется на разделы Видео , DVD-Видео и Многоканальной музыки, для них есть отдельные правила:
4. Требования к раздаваемому материалу:
  • Запрещается раздача любого музыкального материала в виде несжатых образов !
    (Включая, но не ограничиваясь - *.mdf/*.mds, *.iso, *.nrg , *.bin/*.wav+*.cue; формат *iso.wv также запрещен. ).
  • Запрещается раздача музыкального материала в архивах !
    (Включая, но не ограничиваясь *.rar, *.zip), вне зависимости от того, откуда был скачан оригинал и раздается ли он еще где-нибудь, кроме unionpeer.org.
  • Запрещается включение в состав раздачи исполняемых файлов (*.exe, *.com & etc) а также файлов, содержащих рекламу сторонних ресурсов, исключая *.nfo . (Исключение возможно только для lossless рипов с Enhanced CD).
  • Запрещаются рипы с виртуальных приводов.
    (исключениями являются рипы, полученные таким способом с целью корректировки оффсета.
    при таком способе получения рипа, релизер должен в раздачу вложить оригинальный отчёт об извлечении и второй отчёт, полученный при рипе с виртуального привода.)
  • Запрещается включать в раздачи аудиоконтента видеоклипы (бонус видео), в разделах с lossy-форматом !
    Исключением является раздел для lossless-форматов :
    Разрешается включать в раздачи аудио контента видеоклипы (бонус видео) и другой бонусный материал (mp3-бонусы, флэш-клипы и т.д.), при условии, что этот материал присутствовал на оригинальном диске (Enhanced CD). В этом случае, раздача видеоматериала должна оформляться в строгом соответствии с Правилами оформления раздач муз.видео. Данный пункт правил не включает вариант раздачи рипов с комплекта CD+DVD. В этом случае, должны создаваться две раздачи, каждую из которых необходимо выкладывать в соответствующем разделе.
  • Во всех Lossless-разделах форума рекомендуется размещать раздачи используя для снятия рипа EAC. Равнозначными по содержимому считаются раздачи в виде:
    • Рип, снятый образом (имиджевый рип) Image+cue+log;
    • Рип, снятый потреково Tracks+cue+log.
    1. "Рип" должен быть сделан EAC-ом по технологии, описанной тут - Инструкция по настройке EAC для снятия аудиоданных с максимальной точностью и упакован любым lossless-кодеком (APE, FLAC, WAVPack...). Про упаковку в APE читайте там же, в указанных инструкциях. Рипы, сделанные по этим правилам, называются правильными. Все вопросы можно слать в ЛС Модераторам музыки .
    EAC является официально рекомендованной программой для снятия рипов. В случае если по каким то причинам вы не использовали EAC, либо Вам не известно с помощью какой программы сделан рип (чужой релиз), при оформлении темы необходимо указать:
    • источник получения рипа (Например: трекер, DC++ Hub)
    • первоначальный релизер: (Например: Vasya Pupkin)
    • лог Audiochecker с таком виде:

      Код:

      [spoiler="Лог Audiochecker"]содержимое лога[/spoiler]
    2. Если Вы сняли образ, а потом порезали на треки, то сохраните оригинальный CUE, и не забудьте про то, что ненулевой pregap перед первым треком теряется при нарезке foobar'ом, так что надо вручную править индексы -- убирать INDEX 00 и ставить вручную INDEX 01 00:00:00). Подробнее можно прочитать в теме О точном восстановлении образа, порезанного на треки из имиджа с помощью Foobar2000 с ненулевым прегэпом первого трека. В случае, если Вы сразу рипаете треками, то постарайтесь сохранять pregap-ы. Раздачи с сохранёнными pregap-ами и compliant-Cue тоже называются правильными

    3. Диск-источник перед раздачей необходимо проверять с помощью Tau Analayzer. Это поможет Вам избежать выкладывания так называемых upconvert`ов (транскодов) до раздачи. Под транскодами, в данном случае, подразумевается пиратский диск, сделанный путем записи mp3 (wma) на аудио-диск.

    3.1. Релизеры, чьи релизы будут в последствии отбракованы как "подделки", будут наказаны предупреждением. Напоминаем: 3 предупреждения = БАН. Исключение составляют заведомо лицензионные диски, но и здесь мы СОВЕТУЕМ проверять их во избежание неприятностей.

    3.2. Если Ваша раздача не является правильной (то есть сделана другими методами или с неправильными настройками EAC, подробные определения даны выше под спойлером), то, в случае появления правильной раздачи, Ваша будет закрыта. Если одна правильная раздача уже есть, вторая правильная будет закрыта как повтор.

    Если Вы делаете правильную раздачу, а на трекере ранее раздавались аналогичные, но неправильные раздачи, пошлите модератору раздела в ЛС ссылки на них, чтобы их закрыли.

    3.3. Запрещается оформление lossless-раздач, в которых при снятии собственного рипа использовались режимы Burst (Скоростной) и Parapoid (Параноидальный). Допустимыми являются только раздачи, снятые в режиме Secure (Достоверный).

5. О дискографиях и коллекциях.
В музыкальных разделах запрещено раздавать менее качественный материал, чем уже имеющийся.
  • Запрещены перекрёстные раздачи дискографий (коллекций)
  • Запрещены дискографии нескольких исполнителей одновременно. (Можно лишь в том случае, если солист или член состава группы имеет сольные альбомы.)
  • Наличие бутлегов в уже существующих\новых раздачах не являются определяющим фактором для создания\поглощения раздач.
  • Единичные раздачи альбомов текущего года выпуска не подлежат поглощению более полными раздачами в течение 1-2 месяцев со дня опубликования раздачи.
  • Допускается поглощение плохо оформленных раздач оформленными лучше, в случае значительных дефектов оформления и содержания в ранее существующей раздаче.
  • Модераторы вправе по своему усмотрению закрывать раздачи, которые были поглощены дискографиями (коллекциями), а также менее качественные по содержанию раздачи в пользу более качественных.

6. О сборниках :
Ограничения , касающиеся публикации сборников:
  1. Не допускается публикация музыкальных сборников, соответствующих хотя бы одному из следующих критериев:
    • "Моя лучшая подборка",
    • "Все что я накопил за N-цать лет",
    • "Зашибительские треки N-нного года",
    • "Моя Мега суперколлекция",
    • любые иные сборники, не обладающие общим смысловым содержимым (стиль, жанр), то есть, например "все исполнители на букву А", и таким образом создающие раздачу-мусор.
  2. Если раздаваемый Вами сборник не подпадает под действие пункта 1, проверьте следующее:
    • общий размер раздачи музыкального сборника в lossy не может превышать 700mb (стандартная CD-болванка)
    • количество треков в раздаче не должно превышать 200 треков.
  3. Вышеуказанные ограничения не распространяются на официальные или собранные дискографии конкретного исполнителя.
  4. Допускается публикация официальных сборников треков (композиций), выпущенных на дисках звукозаписывающими студиями.
    В этом случае вы обязаны указать издателя (лейбл) или ссылку на официальный источник, подтверждающие выход такого сборника (компиляции).

    Если вы все же посчитали, что ваш сборник уникален и достоин внимания пользователей, и вы хотите выложить его, посоветуйтесь с модератором раздела !
    Если вы опубликовали сборник без согласования с модератором, то помните, что окончательное решение о существовании подобной раздачи принимает модератор раздела, и по своему усмотрению, вправе перенести раздачу в форум "Музыка других жанров", либо удалить ее.
    Сборники, даже если они уникальны для вас, размером более 700 мб, будут закрываться и удалятся в Мусорку.


Ограничения , касающиеся публикации одиночных файлов и "минисборников":
  1. Не допускается публикация раздач, содержащих всего одну композицию (единственный трек), даже если вы лично считаете ее бесподобной. Исключение составляют только релизы в виде "непорезанного" на треки файла с обязательным приложением CUE-файла, для последующего разделения на треки. Исключение составляют официальные синглы исполнителей (групп) содержащие один трек, или официальные альбомы состоящие из одного трека (без разбиения). Синглы, состоящие из большего количества треков, под действие настоящего правила не подпадают.
  2. Не допускается публикация релизов, подпадающих под определение "все что я нашел из творчества группы (исполнителя)", а также "лучшие песни с альбома".
    Исключением является публикация раритетного материала одного исполнителя, собранного по крупицам в сети.
  3. В качестве исключения модератор может оставить раздачу одиночного файла , если он представляет огромный интерес для пользователей.

6. Если ваша раздача в Архиве, то рекомендуется поднять раздачу из Архива, не создавая новой темы.
Если раздача была поднята из архива, то оформление ее в соответствии с настоящими правилами является обязательным условием возобновления раздачи для автора этой раздачи, вне зависимости когда раздача была создана впервые
Написать модератору соответствующего раздела личное сообщение (ЛС) вида "Прошу восстановить раздачу (ссылка) в раздел (название раздела). Спасибо."

7. Требования по оформлению раздачи:
Строго заполняйте все поля шаблона, который появляется при нажатии на кнопку , расположенную слева вверху над списком тем форума.
Внимание!
Если вы не увидели шаблона, значит вы пытаетесь создать раздачу в разделе где ее размещение не предусмотрено, например подразделы "Ищу".
В результате заполнения шаблона, после нажатия на кнопку "Продолжить" шаблон автоматически сгенерирует код для страницы, и вы увидите его в окне для окончательного редактирования (если вы по каким-то причинам ошиблись или хотите исправить (дополнить) оформление, это всегда можно сделать нажав ссылку "Изменить" в правом верхнем углу вашего сообщения).
  • Запрещается использовать при оформлении названия раздач исключительно верхний регистр (только заглавные буквы), кроме случаев воиспроизведения оригинального названия.
  • Запрещается использование в заголовке темы точек (.), кроме случаев воспроизведения оригинального названия и случаев, предусмотренных правилами пунктуации.
  • Запрещается в названии раздач и вообще где либо в оформлении, использовать замену пробелов нижним подчеркиванием ("_"), вне зависимости от названия раздачи там где вы ее скачали.
  • Не следует в название раздачи дополнительно вписывать жанр музыки, если он уже был указан при заполнении соответствующей строчки шаблона.
  • При оформлении темы не злоупотребляйте анимированными изображениями, помните, оформление раздачи должно быть лаконичным.
  • Модератор вправе потребовать убрать лишнее или заменить анимированное изображение текстом.
  • В заголовке Темы следует указывать название группы или имя исполнителя и Название альбома, на оригинальном языке, и без перевода. (В случае названий на языках, отличных от русского, английского, французкого, немецкого и испанского, допускается указывать рядом с оригинальным названием исполнителя\альбома транскрипцию их прочтения русскими буквами в скобках).

  • При размещении дискографии или нескольких альбомов, необходимо указать только название группы или имя исполнителя и кол-во альбомов.
  • При размещении сборников, в заголовке следует указывать "VA - Название сборника". При этом в самой теме сборник маркируется как "Various Artists - Название сборника"
  • При добавлении в оформление обложки к вашей раздаче учитывайте, что максимальный размер картинки не должен превышать 500x500 пикселей. Минимальным разрешенным размером обложки является 300х300 пикселей. Не допускается публикация анимированных изображений (обложек), а также вводится ограничение на объем обложки в 500 kb, при условии соблюдения ограничений по размеру в пикселях
  • Модератор вправе по своему усмотрению попросить заменить её на обложку соответствующего правилам размера.
  • При этом сканы обложек, которые находятся внутри раздачи, могут иметь любой размер (Рекомендованное разрешение для сканирования обложек и буклетов от 300 до 600 dpi.).
  • Запрещается добавлять обложки с рекламой сторонних ресурсов(!)
  • Обложки обязательно заливать на хост, не требующий регистрации и ввода паролей для просмотра картинок.
  • С разрешения модератора допускается публикация музыкальных релизов без обложек, в случае если таковые отсутствут в сети и Вашем распоряжении.
  • При этом Вы вправе обратиться к участникам файлообмена за помощью в розыске таковой. Решение о разрешении и статусе такой раздачи принимает модератор.

  • Стиль (жанр) музыки указывается по-английски, за исключением отсутствия общеупотребимого английского варианта, либо его иного смысла (например, "частушки" или "шансон")

  • Не делайте ошибок в названии групп, пишите их в точности так, как написано на официальном сайте группы! При этом учитывайте, что не всякие названия можно найти поиском, поэтому названия типа W.A.S.P. допустимо писать только так: W.A.S.P. (WASP), то есть в скобках указывается название "без выкрутасов".

1. Все релизы lossless должны соответствовать следующим требованиям:
1. При оформлении раздачи:

  1. В первом посте раздачи в спойлере необходимо продемонстрировать log-файл EAC (если для рипа использовалась EAC), вот в таком виде:
    содержание лог-файла
    Для этого надо использовать следующий тег форума:

    Код:

    [spoiler="Отчёт EAC"][pre]
    содержание лог-файла
    [/pre][/spoiler]
    При этом условие включения log-файла в контент самой раздачи, является строго обязательным.
    Если рип производился другими программами, или был получен путем файлообмена (e2k, другой трекер, иное) и в нем отсутствовал log-файл - при оформлении следует указывать:

    Цитата:

    Лог файл: отсутствует
    Скачано: из e2k (название трекера или т.п.)
    Что бы избежать вопросов, связанных с качеством контента вы можете дополнить раздачу скриншотом (screenshot) спектра Tau Analayzer или Adobe Audition. Если рип не свой или лог рипа утрачен, то выкладывать лог Audiochecker обязательно.
  2. Не допускается писать текст вида "лог прилагается к торренту", "лог внутри раздачи" и т.п. Несоблюдающие такое правило раздачи будут помещаться в тестовый форум для их последующего исправления и дооформления.
  3. Если Вы раздаёте релиз, который Вы скачали из других источников, и удаётся выяснить, кто автор, указывайте также и имя оригинального релизёра и источник получения релиза. При оформлении следует указывать, например, в таком виде:

    Цитата:

    "Источник: edK (релизер Иван Ветров)".
  • Запрещается размещать рипы содержащие в логах функцию "Нормализовать" ("Normalize"). Размещенный релиз, содержащий в логе указание на использование указанной функции будет закрыт, даже если и все остальные параметры не вызывают сомнений.

2.Обязательно публикуйте треклист (список композиций в Вашей раздаче).
  1. Запрещена публикация треклистов в форме скриншотов файловых менеджеров, либо оборотной стороны обложки. Под обязательностью публикования треклиста подразумевается его текстовое, а не графическое воспроизведение.
  2. Обязательна публикация треклиста к каждому альбому !
  3. Запрещено написание транслитом треклистов для отечественных исполнителей, и исполнителей на языках с кириллическим алфавитом (украинский, болгарский, беларуский и т.п.), кроме случаев оригинального написания треклиста латиницей на компакт-диске. Допускается написание латиницей названий и треклистов китайских, японских, корейских исполнителей, а так же других, использующих иероглифическое письмо.
  4. Треклист должен иметь читабельный вид: одна композиция - одна строка, без лишних знаков припинания и форматирования (ненужных абзацев и т.п.)
  5. Рекомендуется указывать в треклисте порядковый номер композиции и её продолжительность; не рекомендуется указывать какие-либо дополнительные данные, кроме самого названия композиции (или названия исполнителя, только в случае раздачи сборника разных исполнителей).
  6. Треклисты в раздаче дискографии или коллекции, а также в раздаче одного альбома, который содержит 40 и более композиций, обязательно убирать под спойлер.
Вариант 1: Треклист создается в три клика через WinAmp! Открываем WinAmp, загружаем все файлы, в плейлисте есть внизу кнопочка Misc (4-ая слева), кликаем на нее, потом опять Misc, но уже в контекстной менюшке, и там Generate HTML list, оттуда копируем, здесь вставляем. Или еще проще Ctrl+Alt+G (активным должен быть плейлист, а не окно проигрывания WinAmp).
Вариант 2: Треклист можно создать почти автоматически и довольно красиво с помощью проигрывателя Foobar (подробнее по ссылке).
Вариант 3: Найти соответствующий треклист альбома в Интернете, используя поисковую любую систему. При этом не забудьте очистить текст от мусора, который иногда встречается на страницах, типа надписей "Скачать трек" и т.д.

Инструкция по созданию треклиста
3. Указывайте формат раздаваемой музыки (комбобокс (ниспадающий список) "Формат" шаблона).
4. Указывайте качество (битрейт) раздаваемой музыки (комбобокс (ниспадающий список) "Битрейт аудио" шаблона).
Битрейт можно проверить почти в любом проигрывателе. Для раздач в формате lossless, в списке выбираете "lossless", битрейт для lossless-форматов значения не имеет.
При VBR (различном битрейте в пределах одной композиции) указывайте его среднюю величину (многие плееры умеют его вычислять), а не максимальное значение (а лучше -- и границы колебания, и среднее).
  • Обязательно указывайте битрейт к каждому альбому !
5. Желательно указывать тип альбома: студийная запись, промо-версия, live, или же запись в домашних условиях на магнитофоне МК-25 и т.д. Если это студийный альбом -- можете ничего не указывать, это подразумевается. Если же нет - вот список:
(Promo): это бесплатные записи (ещё иногда их называют Demo), которые музыканты рассылают в звукозаписывающие компании, либо выкладывают на официальные сайты для ознакомления. Зачастую это записи плохого качества, бывают с голосовыми вставками участников группы, рекламирующих альбом (voiceover).

(Single): состоит обычно из одного/двух треков. Часто это главная песня будущего альбома плюс ещё трек, которые будут транслироваться по радио, и на которые будут сняты клипы.
Обычно это "самая мощная" песня альбома.

(EP): состоит из большего количества песен, чем сингл, но до полноценного альбома не дотягивает. То есть четыре-пять песен.

(Live): официальная аудио-запись концерта (тесно связана с DVD)

(Bonus): CD с различными бонусами от группы или звукозаписывающей компании (каверы, ремиксы, переиздания и тд)

(Compilation): сборка лучших песен, или любая другая сборка (например, синглов). Здесь подразумевается официальная сборка.

(Bootleg): это неофициальная живая или неизданная студийная запись исполнителя.

Используйте ИМЕННО ЭТИ обозначения, а не изобретайте свои. Чтобы не было огорчений от того, что целый день качал полноценный альбом, а в итоге получил ужасного качества промо, которое можно скачать на любом ресурсе сети.
6. Приветствуется дополнительно указывать информацию о исполнителе/группе и альбоме. Это придаст вашей раздаче дополнителную информативность.
  • Дополнительную информацию, превышающую 8-10 строк, желательно убирать под спойлер.


Atra Hora - Lost In The Depths

Жанр: Death Black Metal
Происхождение исполнителя: Россия
Год: 2010
Аудио кодек: MP3
Битрейт аудио: CBR 320 kbps
Продолжительность: 1:02:42
Треклист:


01. Atra Hora (1:23)
02. Journey to the Chaos (3:49)
03. They Go (4:12)
04. Awaking of the Unholy (3:06)
05. War Under the Sign of Baphomet (7:50)
06. Holocaust (5:20)
07. Requiem for Human Tribe (9:01)
08. Nuclear December (7:15)
09. Dark Corners of Universe (6:57)
10. Voice of the Forgotten Depths (13:50)

Код:

[align=center][size=24][b][font="'Comic Sans MS'"][color=#330000][u]Atra Hora - Lost In The Depths[/u][/color][/font][/b][/size][/align]
[hr]
[img=right]http://www.darkside.ru/band/4341/cover/23776.jpg[/img]

[font="Tahoma"][size=16][b]Жанр[/b]: Death Black Metal
[b]Происхождение исполнителя[/b]: Россия
[b]Год[/b]: 2010
[b]Аудио кодек[/b]: MP3
[b]Битрейт аудио[/b]: CBR 320 kbps
[b]Продолжительность[/b]: 1:02:42
[b]Треклист[/b]:[/size][/font]

[font="'Comic Sans MS'"][size=14][color=#0000ff]01. Atra Hora (1:23)
02. Journey to the Chaos (3:49)
03. They Go (4:12)
04. Awaking of the Unholy (3:06)
05. War Under the Sign of Baphomet (7:50)
06. Holocaust (5:20)
07. Requiem for Human Tribe (9:01)
08. Nuclear December (7:15)
09. Dark Corners of Universe (6:57)
10. Voice of the Forgotten Depths (13:50)[/color][/size][/font]

Helloween - 7 Sinners

Жанр: Power Metal
Происхождение исполнителя: Germany
Год издания данного носителя: 2010
Страна-производитель носителя: Germany
Тип релиза: image+.cue
Аудио кодек: APE
Битрейт аудио: lossless
Продолжительность: 65:03
Полиграфия: присутствует
Треклист:


01. Where The Sinners Go 03:35
02. Are You Metal? 03:35
03. Who is Mr. Madman? 05:42
04. Raise The Noise 05:06
05. World Of Fantasy 05:14
06. Long Live The King 04:12
07. The Smile Of The Sun 04:36
08. You Stupid Mankind 04:03
09. If A Mountain Could Talk 06:43
10. The Sage, The Fool, The Sinner 04:00
11. My Sacrifice 05:59
12. Not Yet Today 01:12
13. Far In The Future 07:42
14. I'm Free ( bonus track) 04:10
 
Exact Audio Copy V0.99 prebeta 5 from 4. May 2009

EAC extraction logfile from 2. November 2010, 16:49

Helloween / Helloween - 7 Sinners

Used drive : ASUS DRW-20B1ST Adapter: 1 ID: 1

Read mode : Secure
Utilize accurate stream : Yes
Defeat audio cache : Yes
Make use of C2 pointers : No

Read offset correction : 6
Overread into Lead-In and Lead-Out : No
Fill up missing offset samples with silence : Yes
Delete leading and trailing silent blocks : No
Null samples used in CRC calculations : Yes
Used interface : Native Win32 interface for Win NT & 2000

Used output format : Monkey's Audio Lossless Encoder
Selected bitrate : High Lossless Compression
Quality : High
Add ID3 tag : No
Command line compressor : C:\Program Files (x86)\Monkey's Audio\MAC.exe
Additional command line options : -v

TOC of the extracted CD

Track | Start | Length | Start sector | End sector
---------------------------------------------------------
1 | 0:00.00 | 3:36.01 | 0 | 16200
2 | 3:36.01 | 3:35.23 | 16201 | 32348
3 | 7:11.24 | 5:43.63 | 32349 | 58136
4 | 12:55.12 | 5:07.03 | 58137 | 81164
5 | 18:02.15 | 5:15.39 | 81165 | 104828
6 | 23:17.54 | 4:13.33 | 104829 | 123836
7 | 27:31.12 | 4:37.05 | 123837 | 144616
8 | 32:08.17 | 4:04.20 | 144617 | 162936
9 | 36:12.37 | 6:43.64 | 162937 | 193225
10 | 42:56.26 | 4:00.63 | 193226 | 211288
11 | 46:57.14 | 4:59.34 | 211289 | 233747
12 | 51:56.48 | 1:12.00 | 233748 | 239147
13 | 53:08.48 | 7:44.02 | 239148 | 273949
14 | 60:52.50 | 4:10.50 | 273950 | 292749
15 | 67:35.25 | 2:34.54 | 304150 | 315753

Range status and errors

Selected range

Filename E:\Helloween - 7 Sinners.wav

Peak level 100.0 %
Range quality 100.0 %
Copy CRC EF0892BF
Copy OK

No errors occurred

AccurateRip summary
Track 1 not present in database
Track 2 not present in database
Track 3 not present in database
Track 4 not present in database
Track 5 not present in database
Track 6 not present in database
Track 7 not present in database
Track 8 not present in database
Track 9 not present in database
Track 10 not present in database
Track 11 not present in database
Track 12 not present in database
Track 13 not present in database
Track 14 not present in database
None of the tracks are present in the AccurateRip database

End of status report

Код:

REM GENRE "power metal"
REM DATE 2010
REM DISCID DF10720F
REM COMMENT "ExactAudioCopy v0.99pb5"
PERFORMER "Helloween"
TITLE "Helloween - 7 Sinners"
FILE "Helloween - 7 Sinners.ape" WAVE
  TRACK 01 AUDIO
    TITLE "Track01"
    PERFORMER "Helloween"
    INDEX 01 00:00:00
  TRACK 02 AUDIO
    TITLE "Track02"
    PERFORMER "Helloween"
    INDEX 00 03:35:70
    INDEX 01 03:36:01
  TRACK 03 AUDIO
    TITLE "Track03"
    PERFORMER "Helloween"
    INDEX 00 07:11:11
    INDEX 01 07:11:24
  TRACK 04 AUDIO
    TITLE "Track04"
    PERFORMER "Helloween"
    INDEX 00 12:54:04
    INDEX 01 12:55:12
  TRACK 05 AUDIO
    TITLE "Track05"
    PERFORMER "Helloween"
    INDEX 00 18:01:38
    INDEX 01 18:02:15
  TRACK 06 AUDIO
    TITLE "Track06"
    PERFORMER "Helloween"
    INDEX 00 23:16:74
    INDEX 01 23:17:54
  TRACK 07 AUDIO
    TITLE "Track07"
    PERFORMER "Helloween"
    INDEX 00 27:30:18
    INDEX 01 27:31:12
  TRACK 08 AUDIO
    TITLE "Track08"
    PERFORMER "Helloween"
    INDEX 00 32:07:56
    INDEX 01 32:08:17
  TRACK 09 AUDIO
    TITLE "Track09"
    PERFORMER "Helloween"
    INDEX 00 36:12:11
    INDEX 01 36:12:37
  TRACK 10 AUDIO
    TITLE "Track10"
    PERFORMER "Helloween"
    INDEX 00 42:56:18
    INDEX 01 42:56:26
  TRACK 11 AUDIO
    TITLE "Track11"
    PERFORMER "Helloween"
    INDEX 00 46:56:49
    INDEX 01 46:57:14
  TRACK 12 AUDIO
    TITLE "Track12"
    PERFORMER "Helloween"
    INDEX 00 51:56:19
    INDEX 01 51:56:48
  TRACK 13 AUDIO
    TITLE "Track13"
    PERFORMER "Helloween"
    INDEX 01 53:08:48
  TRACK 14 AUDIO
    TITLE "Track14"
    PERFORMER "Helloween"
    INDEX 00 60:51:12
    INDEX 01 60:52:50

Код:

[align=center][size=24][b]Helloween - 7 Sinners[/b][/size][/align]
[hr]
[img=right]http://i11.fastpic.ru/big/2010/1103/a4/9e64370b74d20ee6ee6ce6cf75988aa4.jpg[/img]

[font="Tahoma"][size=16][b]Жанр[/b]: Power Metal
[b]Происхождение исполнителя[/b]: Germany
[b]Год издания данного носителя[/b]: 2010
[b]Страна-производитель носителя[/b]: Germany
[b]Тип релиза[/b]: image+.cue
[b]Аудио кодек[/b]: APE
[b]Битрейт аудио[/b]: lossless
[b]Продолжительность[/b]: 65:03
[b]Полиграфия[/b]: присутствует
[hr]
[b]Треклист[/b]:[/size][/font]

[font="'Times New Roman'"][size=14][color=#000044]01. Where The Sinners Go 03:35
02. Are You Metal? 03:35
03. Who is Mr. Madman? 05:42
04. Raise The Noise 05:06
05. World Of Fantasy 05:14
06. Long Live The King 04:12
07. The Smile Of The Sun 04:36
08. You Stupid Mankind 04:03
09. If A Mountain Could Talk 06:43
10. The Sage, The Fool, The Sinner 04:00
11. My Sacrifice 05:59
12. Not Yet Today 01:12
13. Far In The Future 07:42
14. I'm Free ( bonus track) 04:10[/color][/size][/font]
[spoiler="Отчёт об извлечении"]
[pre]
Exact Audio Copy V0.99 prebeta 5 from 4. May 2009

EAC extraction logfile from 2. November 2010, 16:49

Helloween / Helloween - 7 Sinners

Used drive  : ASUS    DRW-20B1ST   Adapter: 1  ID: 1

Read mode               : Secure
Utilize accurate stream : Yes
Defeat audio cache      : Yes
Make use of C2 pointers : No

Read offset correction                      : 6
Overread into Lead-In and Lead-Out          : No
Fill up missing offset samples with silence : Yes
Delete leading and trailing silent blocks   : No
Null samples used in CRC calculations       : Yes
Used interface                              : Native Win32 interface for Win NT & 2000

Used output format              : Monkey's Audio Lossless Encoder
Selected bitrate                : High Lossless Compression
Quality                         : High
Add ID3 tag                     : No
Command line compressor         : C:\Program Files (x86)\Monkey's Audio\MAC.exe
Additional command line options : -v

TOC of the extracted CD

     Track |   Start  |  Length  | Start sector | End sector
    ---------------------------------------------------------
        1  |  0:00.00 |  3:36.01 |         0    |    16200   
        2  |  3:36.01 |  3:35.23 |     16201    |    32348   
        3  |  7:11.24 |  5:43.63 |     32349    |    58136   
        4  | 12:55.12 |  5:07.03 |     58137    |    81164   
        5  | 18:02.15 |  5:15.39 |     81165    |   104828   
        6  | 23:17.54 |  4:13.33 |    104829    |   123836   
        7  | 27:31.12 |  4:37.05 |    123837    |   144616   
        8  | 32:08.17 |  4:04.20 |    144617    |   162936   
        9  | 36:12.37 |  6:43.64 |    162937    |   193225   
       10  | 42:56.26 |  4:00.63 |    193226    |   211288   
       11  | 46:57.14 |  4:59.34 |    211289    |   233747   
       12  | 51:56.48 |  1:12.00 |    233748    |   239147   
       13  | 53:08.48 |  7:44.02 |    239148    |   273949   
       14  | 60:52.50 |  4:10.50 |    273950    |   292749   
       15  | 67:35.25 |  2:34.54 |    304150    |   315753   

Range status and errors

Selected range

     Filename E:\Helloween - 7 Sinners.wav

     Peak level 100.0 %
     Range quality 100.0 %
     Copy CRC EF0892BF
     Copy OK

No errors occurred

 
AccurateRip summary
 
Track  1  not present in database
Track  2  not present in database
Track  3  not present in database
Track  4  not present in database
Track  5  not present in database
Track  6  not present in database
Track  7  not present in database
Track  8  not present in database
Track  9  not present in database
Track 10  not present in database
Track 11  not present in database
Track 12  not present in database
Track 13  not present in database
Track 14  not present in database
 
None of the tracks are present in the AccurateRip database

End of status report
[/pre][/spoiler]
[spoiler="Текст .cue (файл разметки)"]
[code]
REM GENRE "power metal"
REM DATE 2010
REM DISCID DF10720F
REM COMMENT "ExactAudioCopy v0.99pb5"
PERFORMER "Helloween"
TITLE "Helloween - 7 Sinners"
FILE "Helloween - 7 Sinners.ape" WAVE
  TRACK 01 AUDIO
    TITLE "Track01"
    PERFORMER "Helloween"
    INDEX 01 00:00:00
  TRACK 02 AUDIO
    TITLE "Track02"
    PERFORMER "Helloween"
    INDEX 00 03:35:70
    INDEX 01 03:36:01
  TRACK 03 AUDIO
    TITLE "Track03"
    PERFORMER "Helloween"
    INDEX 00 07:11:11
    INDEX 01 07:11:24
  TRACK 04 AUDIO
    TITLE "Track04"
    PERFORMER "Helloween"
    INDEX 00 12:54:04
    INDEX 01 12:55:12
  TRACK 05 AUDIO
    TITLE "Track05"
    PERFORMER "Helloween"
    INDEX 00 18:01:38
    INDEX 01 18:02:15
  TRACK 06 AUDIO
    TITLE "Track06"
    PERFORMER "Helloween"
    INDEX 00 23:16:74
    INDEX 01 23:17:54
  TRACK 07 AUDIO
    TITLE "Track07"
    PERFORMER "Helloween"
    INDEX 00 27:30:18
    INDEX 01 27:31:12
  TRACK 08 AUDIO
    TITLE "Track08"
    PERFORMER "Helloween"
    INDEX 00 32:07:56
    INDEX 01 32:08:17
  TRACK 09 AUDIO
    TITLE "Track09"
    PERFORMER "Helloween"
    INDEX 00 36:12:11
    INDEX 01 36:12:37
  TRACK 10 AUDIO
    TITLE "Track10"
    PERFORMER "Helloween"
    INDEX 00 42:56:18
    INDEX 01 42:56:26
  TRACK 11 AUDIO
    TITLE "Track11"
    PERFORMER "Helloween"
    INDEX 00 46:56:49
    INDEX 01 46:57:14
  TRACK 12 AUDIO
    TITLE "Track12"
    PERFORMER "Helloween"
    INDEX 00 51:56:19
    INDEX 01 51:56:48
  TRACK 13 AUDIO
    TITLE "Track13"
    PERFORMER "Helloween"
    INDEX 01 53:08:48
  TRACK 14 AUDIO
    TITLE "Track14"
    PERFORMER "Helloween"
    INDEX 00 60:51:12
    INDEX 01 60:52:50
[/code][/spoiler]

Mos

:!: Изменён пункт 2.6:

Цитата:

Треклисты в раздаче дискографии или коллекции, а также в раздаче одного альбома, который содержит 50 и более композиций, обязательно убирать под спойлер.
Отныне, треклист, который содержит 40 и более композиций, обязательно нужно убирать под спойлер.

Хотите добавить комментарий к записи скачать торрент Общие правила оформления раздач в разделе Музыка

!Обратная связь