Скачать через торрент Зодчий теней Повелитель теней Фильм бесплатно в хорошем качестве torrent

Скачивайте на UnionPeer.org фильмы через торрент без регистрации. Новинки кино в хорошем качестве через торрент. На UnionPeer.org можно скачать через торрент фильмы 2014 и 2015 годов. Самые новые фильмы.

Скачать торрент Зодчий теней Повелитель теней бесплатно через .torrent фильм мультфильм сериал

Если у вас наблюдаются проблемы со скриншотами, переходом по ссылками, скачиванием торрентов - проблемы в блокировщике рекламы AdBlock. #хорошегоДня!


Статистика раздачи
Размер:  1.46 GB   |    Зарегистрирован:  4 года 6 месяцев   |    .torrent скачан:  14 раз   |   
Раздают:  1  
   
Загрузка...
 
Автор Сообщение

Galfimbul

avatar Galfimbul


Зодчий теней / Повелитель теней / Shadow Builder

Страна: США, Канада
Жанр: ужасы
Год выпуска: 1998
Продолжительность: 01:36:30



Перевод: Профессиональный (двухголосый закадровый)
Cубтитры: нет



Режиссер: Джэми Диксон / Jamie Dixon
В ролях: Майкл Рукер, Лесли Хоуп, Шоун Томпсон, Эндрю Джексон, Кевин Зегерс, Тони Тодд, Hardee T. Lineham, Кэтрин Брухайер, Гордон Майкл Вулветт, Джеймс Б. Дуглас



Описание: Действие очередной картины о борьбе добра и зла происходит в маленьком городишке, избранном судьбой в качестве арены. Разрытые могилы с трупами, разлагающимися под воздействием прямых лучей солнца, приближающееся солнечное затмение, ночь грозит поглотить город. Что даст вскрытие тел, найденных в могиле? Труп просто оживает и встает со стола для вскрытия, но рассыпается под воздействием света и снова складывается в… дымную, черную тень… Кто возьмет в руки меч Господа для того, чтобы встать на пути зла в предрассветный час? Что может сделать простой шериф и его помощник? Может быть, спасителем станет таинственный незнакомец с белым воротничком священника, приехавший в город?…







Качество видео: DVDRip (DVD5)
Формат видео: AVI
Видео: 688x512 (1.34:1), 25 fps, XviD build 65 ~1769 kbps avg, 0.20 bit/pixel
Аудио: 48 kHz, AC3 Dolby Digital, 3/2 (L,C,R,l,r) + LFE ch, ~384 kbps
General
Complete name : D:\Релизы\Shadow Builder.1998.RUS.DVDRip.XviD.AC3.avi
Format : AVI
Format/Info : Audio Video Interleave
File size : 1.46 GiB
Duration : 1h 36mn
Overall bit rate : 2 163 Kbps
Writing application : VirtualDubMod 1.5.10.2 (build 2540/release)
Writing library : VirtualDubMod build 2540/release

Video
ID : 0
Format : MPEG-4 Visual
Format profile : Advanced Simple@L5
Format settings, BVOP : 1
Format settings, QPel : No
Format settings, GMC : No warppoints
Format settings, Matrix : Custom
Codec ID : XVID
Codec ID/Hint : XviD
Duration : 1h 36mn
Bit rate : 1 769 Kbps
Width : 688 pixels
Height : 512 pixels
Display aspect ratio : 4:3
Frame rate : 25.000 fps
Color space : YUV
Chroma subsampling : 4:2:0
Bit depth : 8 bits
Scan type : Progressive
Compression mode : Lossy
Bits/(Pixel*Frame) : 0.201
Stream size : 1.19 GiB (82%)
Writing library : XviD 65

Audio
ID : 1
Format : AC-3
Format/Info : Audio Coding 3
Mode extension : CM (complete main)
Format settings, Endianness : Big
Codec ID : 2000
Duration : 1h 36mn
Bit rate mode : Constant
Bit rate : 384 Kbps
Channel(s) : 6 channels
Channel positions : Front: L C R, Side: L R, LFE
Sampling rate : 48.0 KHz
Bit depth : 16 bits
Compression mode : Lossy
Stream size : 265 MiB (18%)
Alignment : Split accross interleaves
Interleave, duration : 40 ms (1.00 video frame)
Interleave, preload duration : 500 ms


Трекер:  [ 30-Апр-2013 16:00 ]

  

Скачать .torrent

Размер .torrent файла 15 KB


Размер: 1.46 GB
Хэш (hash) релиза: 426e64aceac522614ea211d7a3800103463f32c9
Подписка на обновления:

Торренты, похожие на Зодчий теней Повелитель теней скачать торрент

Форум Название Автор Размер S L Добавлен
Зарубежные фильмы до 2016 ·· Зодчий теней / Повелитель теней / Shadow Builder [1998, Мистика/Ужасы DVDRip] Galfimbul 14680746321.37 GB 0 0 1365328853

13:00

7-Апр-13

Еще никто не оставлял запись к записи скачать торрент Зодчий теней Повелитель теней . Будь первым!

!Обратная связь