Скачать через торрент Мабурахо Maburaho бесплатно Аниме Все серии на русском torrent

Если у вас наблюдаются проблемы со скриншотами, переходом по ссылками, скачиванием торрентов - проблемы в блокировщике рекламы AdBlock. #хорошегоДня!


Статистика раздачи
Размер:  8.87 GB   |    Зарегистрирован:  4 года 5 месяцев   |    .torrent скачан:  75 раз   |   
Раздают:  1  
   
Загрузка...
 
Автор Сообщение

WarNomad

avatar WarNomad


Мабурахо / Maburaho

Страна: Япония
Год выпуска: 2003 г.
Жанр: комедия, гарем, фэнтези
Продолжительность: ~24 мин. серия
Режиссер: Синъитиро Кимура
Студия: J.C. Staff

Описание: Это история про Кадзуки Шикимори, второкурсника престижной школы магии, академии Аой . В отличие от обычных людей, способных использовать магию тысячи раз за всю жизнь, Кадзуки может использовать магию только восемь раз, после чего он превратится в прах.

Его жизнь сразу меняется после того, как выяснилось, что он — потомок величайших магов и возможно будущий отец самого могущественного мага на свете, поэтому сразу несколько студенток стремятся любой ценой получить его бесценные гены, кроме тех девушек, кто хочет стать его женой ещё с детства.

Качество: BDRip
Тип релиза: Без хардсаба
Формат видео: MP4
Наличие линковки: Нет
Релиз/Автор рипа: QTS
Видео: x264 (10 bit), 952х720 (4:3), 1811 Кбит/сек, 23,976 кадра/сек
Аудио: AAC, 288 Кбит/сек, 48,0 КГц 2 канала Front: L R, Язык Японский ;
Субтитры: внешние Язык субтитров русский ; Перевод: ТМ ака Техномаг
ОбщееПолное имя : [QTS] Maburaho TV ep 01-24 (BD H264 952x720 AAC)\[QTS] Maburaho TV ep 01 (BD H264 952x720 AAC).mp4Формат : MPEG-4Профиль формата : Base MediaИдентификатор кодека : isomРазмер файла : 358 МбайтПродолжительность : 23 м.Режим общего битрейта : ПеременныйОбщий поток : 2100 Кбит/секДата кодирования : UTC 2012-06-12 17:04:03Дата пометки : UTC 2012-06-12 17:04:03Программа кодирования : Yamb 2.1.0.0 [http://yamb.unite-video.com]

ВидеоИдентификатор : 1Формат : AVCФормат/Информация : Advanced Video CodecПрофиль формата : High 10@L5.1Параметр CABAC формата : ДаПараметр ReFrames формата : 12 кадровИдентификатор кодека : avc1Идентификатор кодека/Информация : Advanced Video CodingПродолжительность : 23 м.Битрейт : 1811 Кбит/секМаксимальный битрейт : 11,2 Мбит/секШирина : 952 пикселяВысота : 720 пикселейСоотношение сторон : 4:3Режим частоты кадров : ПостоянныйЧастота кадров : 23,976 кадра/секЦветовое пространство : YUVСубдискретизация насыщенности : 4:2:0Битовая глубина : 10 битТип развёртки : ПрогрессивнаяБит/(Пиксели*Кадры) : 0.110Размер потока : 308 Мбайт (86%)Заголовок : [QTS] Maburaho TV ep 01_BDБиблиотека кодирования : x264 core 125 r2200+666+30 20c70fc tMod [10-bit@all X86_64]Настройки программы : cabac=1 / ref=12 / deblock=1:0:0 / analyse=0x3:0x133 / me=umh / subme=11 / psy=1 / fade_compensate=0.00 / psy_rd=1.00:0.00 / mixed_ref=1 / me_range=28 / chroma_me=1 / trellis=2 / 8x8dct=1 / cqm=0 / deadzone=21,11 / fast_pskip=0 / chroma_qp_offset=-2 / threads=9 / lookahead_threads=1 / sliced_threads=0 / nr=0 / decimate=0 / interlaced=0 / bluray_compat=0 / constrained_intra=0 / fgo=0 / bframes=8 / b_pyramid=2 / b_adapt=2 / b_bias=0 / direct=3 / weightb=1 / open_gop=0 / weightp=2 / keyint=240 / keyint_min=24 / scenecut=40 / intra_refresh=0 / rc_lookahead=40 / rc=crf / mbtree=1 / crf=14.0000 / qcomp=0.60 / qpmin=0 / qpmax=51 / qpstep=4 / ip_ratio=1.40 / aq=4:1.00Язык : JapaneseДата кодирования : UTC 2012-06-12 17:04:03Дата пометки : UTC 2012-06-12 17:04:07Основные цвета : BT.709-5, BT.1361, IEC 61966-2-4, SMPTE RP177Характеристики трансфера : BT.709-5, BT.1361Коэффициенты матрицы : BT.709-5, BT.1361, IEC 61966-2-4 709, SMPTE RP177

АудиоИдентификатор : 2Формат : AACФормат/Информация : Advanced Audio CodecПрофиль формата : LCИдентификатор кодека : 40Продолжительность : 23 м.Вид битрейта : ПеременныйБитрейт : 288 Кбит/секМаксимальный битрейт : 292 Кбит/секКаналы : 2 каналаРасположение каналов :Частота : 48,0 КГцМетод сжатия : С потерямиРазмер потока : 48,6 Мбайт (14%)Заголовок : Japanese Audio 2.0chЯзык : JapaneseДата кодирования : UTC 2012-06-12 17:04:06Дата пометки : UTC 2012-06-12 17:04:07
Добавлена финальная версия субтитров от KeeperRus. ПЕРЕКАЧАЙТЕ ТОРРЕНТ ФАЙЛ ПОЖАЛУЙСТА

Трекер:  [ 01-Апр-2013 18:28 ]

  

Скачать .torrent

Размер .torrent файла 34 KB


Размер: 8.87 GB
Хэш (hash) релиза: bd64ac2d9ceeaf9ee806a278e3aaeae0d2e7f8da
Подписка на обновления:

Торренты, похожие на Мабурахо Maburaho скачать торрент

Форум Название Автор Размер S L Добавлен
Аниме | HD Rips ·· Мабурахо / Maburaho (Кимура Синъитиро) [TV] [24 из 24] [без хардсаба] [RUS(ext),JAP+SUB] [2003, комедия, романтика, мистика, этти, BDRip] [720p] Galfimbul 1601971774814.92 GB 0 0 1483639726

21:08

5-Янв-17

Аниме | HD Rips ·· Мабурахо / Maburaho [TV] [24 из 24] [без хардсаба] [RUS(ext), JAP+SUB] [2003 г., комедия, романтика, мистика, этти, BDRemux] [1080p] Galfimbul 147396007351137.27 GB 0 0 1470511886

22:31

6-Авг-16

Аниме | HD Rips ·· Мабурахо / Maburaho [TV] [24 из 24] [Без хардсаба] [RUS(ext), JAP, SUB] [2003 г., комедия, романтика, мистика, этти, BDRip] [1080p] Galfimbul 1643112600515.3 GB 0 0 1465571291

18:08

10-Июн-16

Аниме | HD Rips ·· Мабурахо / Maburaho (Кимура Синъитиро) [TV] [без хардсаба] [24 из 24] [RUS(ext),JAP+SUB] & [1 из 24] [SUB] [2003 г., комедия, романтика, мистика, этти, BDRip] [720p] Galfimbul 1601837564814.92 GB 2 0 1464928089

07:28

3-Июн-16

Аниме | HD Rips ·· Мабурахо / Maburaho [TV] [24 из 24] [Без хардсаба] [RUS(ext), JAP, SUB] [2003 г., комедия, романтика, мистика, этти, BDRip] [1080p] Galfimbul 1643110344315.3 GB 0 0 1464926691

07:04

3-Июн-16

Аниме | HD Rips ·· Мабурахо / Maburaho (Кимура Синъитиро) [TV] [24 из 24] [Без хардсаба] [RUS(ext), JAP+SUB] [2003-2004 гг., комедия, романтика, мистика, этти, BDRip] [720p] Galfimbul 100718846199.38 GB 0 0 1446850719

01:58

7-Ноя-15

Аниме | Rips ·· Мабурахо / Maburaho [1-24 из 24][TV] [RUS(int)+JAP+SUB(ext)] [2003 г., фэнтези, комедия, романтика, школа, TVRip][Любительская] Nomak 62852910105.85 GB 0 0 1290021386

22:16

17-Ноя-10

Аниме | HD Rips ·· Мабурахо (ТВ) / Maburaho [TV] [24 из 24] [Без хардсаба] [RUS(ext), JAP, SUB] [2003 г., комедия, романтика, мистика, этти, BDRip] [1080p] Galfimbul 2439126598222.72 GB 0 0 1473451964

23:12

9-Сен-16

Еще никто не оставлял запись к записи скачать торрент Мабурахо Maburaho . Будь первым!

!Обратная связь