Скачать через торрент музыку Город звука Sound City бесплатно без регистрации torrent

Если у вас наблюдаются проблемы со скриншотами, переходом по ссылками, скачиванием торрентов - проблемы в блокировщике рекламы AdBlock. #хорошегоДня!


Статистика раздачи
Размер:  383 MB   |    Зарегистрирован:  4 года 3 месяца   |    .torrent скачан:  31 раз   |   
Раздают:  1  
   
Загрузка...
 
Автор Сообщение

Galfimbul

avatar Galfimbul


Город звука / Sound City

Название альбома: Sound City - Real To Reel
Жанр: Soundtrack
Год выпуска диска: 2013
Страна-производитель диска: USA
Издатель (лейбл): RCA
Номер по каталогу: 88765-44992-2
Аудиокодек: FLAC (*.flac)
Тип рипа: image+.cue
Битрейт аудио: lossless
Продолжительность: 55:53
Источник: собственный рип
Наличие сканов в содержимом раздачи: нет
Треклист:
01 Robert Levon Been, Dave Grohl, Peter Hayes - Heaven And All (5:28)
02 Chris Goss, Tim Commerford, Dave Grohl, Brad Wilk - Time Slowing Down (6:00)
03 Stevie Nicks, Dave Grohl, Taylor Hawkins, Rami Jaffee - You Can''t Fix This (5:59)
04 Rick Springfield, Dave Grohl, Taylor Hawkins, Nate Mendel, Pat Smear - The Man That Never Was (3:26)
05 Lee Ving, Dave Grohl, Taylor Hawkins, Alain Johannes, Pat Smear - Your Wife Is Calling (3:22)
06 Corey Taylor, Dave Grohl, Rick Nielsen, Scott Reeder - From Can To Can''t (4:53)
07 Joshua Homme, Chris Goss, Dave Grohl, Alain Johannes - Centipede (5:11)
08 Alain Johannes, Dave Grohl, Joshua Homme - A Trick With No Sleeve (4:58)
09 Paul McCartney, Dave Grohl, Krist Novoselic, Pat Smear - Cut Me Some Slack (4:40)
10 Dave Grohl, Jessy Greene, Rami Jaffee, Jim Keltner - If I Were Me (4:14)
11 Dave Grohl, Joshua Homme, Trent Reznor - Mantra (7:43)
Exact Audio Copy V1.0 beta 3 from 29. August 2011

EAC extraction logfile from 31. March 2013, 18:47

Various Artists / Sound City - Real To Reel

Used drive : ATAPI iHAS124 D Adapter: 2 ID: 0

Read mode : SecureUtilize accurate stream : YesDefeat audio cache : YesMake use of C2 pointers : No

Read offset correction : 6Overread into Lead-In and Lead-Out : NoFill up missing offset samples with silence : YesDelete leading and trailing silent blocks : NoNull samples used in CRC calculations : YesUsed interface : Native Win32 interface for Win NT & 2000

Used output format : User Defined EncoderSelected bitrate : 128 kBit/sQuality : HighAdd ID3 tag : NoCommand line compressor : C:\Program Files (x86)\Exact Audio Copy\Flac\flac.exeAdditional command line options : -V -8 -T "Genre=%genre%" -T "Artist=%artist%" -T "Title=%title%" -T "Album=%albumtitle%" -T "Date=%year%" -T "Tracknumber=%tracknr%" -T "PERFORMER=%albuminterpret%" -T "COMPOSER=%composer%" -T "ALBUMARTIST=%albumartist%" -T "DISCNUMBER=%cdnumber%" -T "TOTALDISCS=%totalcds%" -T "TOTALTRACKS=%numtracks%" -T "Comment=%comment%" %source%

TOC of the extracted CD

Track | Start | Length | Start sector | End sector --------------------------------------------------------- 1 | 0:00.00 | 5:27.51 | 0 | 24575 2 | 5:27.51 | 5:59.64 | 24576 | 51564 3 | 11:27.40 | 5:59.28 | 51565 | 78517 4 | 17:26.68 | 3:26.10 | 78518 | 93977 5 | 20:53.03 | 3:22.29 | 93978 | 109156 6 | 24:15.32 | 4:52.39 | 109157 | 131095 7 | 29:07.71 | 5:10.50 | 131096 | 154395 8 | 34:18.46 | 4:57.39 | 154396 | 176709 9 | 39:16.10 | 4:39.39 | 176710 | 197673 10 | 43:55.49 | 4:14.14 | 197674 | 216737 11 | 48:09.63 | 7:43.25 | 216738 | 251487

Range status and errors

Selected range

Filename D:\CD\VA - 2013 - Sound City - Real To Reel\Various Artists - Sound City - Real To Reel.wav

Peak level 100.0 % Extraction speed 3.5 X Range quality 100.0 % Test CRC 39C3199C Copy CRC 39C3199C Copy OK

No errors occurred

AccurateRip summary

Track 1 not present in databaseTrack 2 not present in databaseTrack 3 not present in databaseTrack 4 not present in databaseTrack 5 not present in databaseTrack 6 not present in databaseTrack 7 not present in databaseTrack 8 not present in databaseTrack 9 not present in databaseTrack 10 not present in databaseTrack 11 not present in database

None of the tracks are present in the AccurateRip database

End of status report

==== Log checksum 924EE0DD25F479952B204D4DCB97B8C435303FD2FC0633402821E42BEDEAEF1F ====


Трекер:  [ 12-Июн-2013 16:30 ]

  

Скачать .torrent

Размер .torrent файла 15 KB


Размер: 383 MB
Хэш (hash) релиза: 6a99860e323f717084b0def8f40927a3fe8d23ae

bot

Топик был перенесен в форум Саундтреки к фильмам и мультфильмам (lossless)

Перенес Galfimbul

Хотите добавить комментарий к записи скачать торрент Город звука Sound City

!Обратная связь