Скачать через торрент Стрелок из скал бесплатно Аниме Все серии на русском torrent

Если у вас наблюдаются проблемы со скриншотами, переходом по ссылками, скачиванием торрентов - проблемы в блокировщике рекламы AdBlock. #хорошегоДня!


Статистика раздачи
Размер:  2.94 GB   |    Зарегистрирован:  4 года 6 месяцев   |    .torrent скачан:  47 раз   |   
Раздают:  1  
   
Загрузка...
 
Автор Сообщение

L



Страна: Япония
Год выпуска: 2012 г.
Жанр: приключения
Тип: TV
Продолжительность: ТВ (8 эп) 23 мин.
Режиссер: Ёсиока Синобу
Студия:Ordet
Озвучка:

одноголосая [PsyX] Сэмпл
Перевод:

субтитры от pengui-subs , UsoSubs
Описание: Данный сериал - часть известного блока передач Noitamina(Animation наобарот) , транслировавшегося на телеканале Fuji TV после полуночи. Целевой аудиторией программы являются преимущественно девушки и молодые женщины.
Аниме будет состоять из 8 серий.
P.S.будем надеяться сериал раскроет содержание и суть..а то ова как-то не пояснила часть сюжета..
Приятного просмотра =)
Качество: HDTVRip [Zero-Raws]
Тип релиза: Без хардсаба
Формат видео: MKV
Видео: AVC, 1280x720, ~2300 Kbps, 23.976 fps
Аудио RUS: MP3, 48 kHz, ~192 Kbps, 2ch
Субтитры: встроенные ASS
GeneralUnique ID : 187605933956067322775467303083482009059 (0x8D2396AE2AAA9F63A888D2203D5FCDE3)Complete name : C:\Users\Nya\Desktop\фандаб\Black Rock Shooter русская озвучка PsyX\Black Rock Shooter - 01 русская озвучка PsyX.mkvFormat : MatroskaFormat version : Version 2File size : 382 MiBDuration : 23mn 0sOverall bit rate : 2 322 KbpsEncoded date : UTC 2012-02-03 11:23:04Writing application : mkvmerge v5.2.1 ('A Far Off Place') built on Jan 2 2012 23:21:10Writing library : libebml v1.2.3 + libmatroska v1.3.0

VideoID : 1Format : AVCFormat/Info : Advanced Video CodecFormat profile : High@L4.1Format settings, CABAC : YesFormat settings, ReFrames : 4 framesMuxing mode : Header strippingCodec ID : V_MPEG4/ISO/AVCDuration : 23mn 0sBit rate : 2 083 KbpsWidth : 1 280 pixelsHeight : 720 pixelsDisplay aspect ratio : 16:9Frame rate : 23.976 fpsColor space : YUVChroma subsampling : 4:2:0Bit depth : 8 bitsScan type : ProgressiveBits/(Pixel*Frame) : 0.094Stream size : 343 MiB (90%)Writing library : x264 core 119 r2106 07efeb4

Default : YesForced : No

AudioID : 3Format : MPEG AudioFormat version : Version 1Format profile : Layer 3Mode : Joint stereoMuxing mode : Header strippingCodec ID : A_MPEG/L3Codec ID/Hint : MP3Duration : 23mn 0sBit rate mode : ConstantBit rate : 192 KbpsChannel(s) : 2 channelsSampling rate : 48.0 KHzCompression mode : LossyStream size : 31.6 MiB (8%)Default : YesForced : No

TextID : 2Format : ASSCodec ID : S_TEXT/ASSCodec ID/Info : Advanced Sub Station AlphaCompression mode : LosslessDefault : YesForced : No


Трекер:  [ 30-Мар-2013 19:53 ]

  

Скачать .torrent

Размер .torrent файла 16 KB


Размер: 2.94 GB
Хэш (hash) релиза: 61a74ef53f256912bb0a89261828290996386121
Подписка на обновления:

Торренты, похожие на Стрелок из скал скачать торрент

Форум Название Автор Размер S L Добавлен
Аниме | HD Rips ·· Стрелок с Черной скалы/Стрелок из скал / Black Rock Shooter [TV] [8 из 8] [Без хардсаба] [RUS(ext), JAP+SUB] [2012 г., приключения, HDTVRip] [720p] L 73138310206.81 GB 0 0 1336020960

07:56

3-Май-12

Аниме | HD Rips ·· Стрелок с Чёрной скалы / Black Rock Shooter (Ёсиока Синобу) [TV] [8 из 8] [без хардсаба] [RUS(ext), JAP+SUB] [2012 г., драма, мистика, BDRip] [1080p] L 2077406683019.35 GB 0 0 1364662450

19:54

30-Мар-13

Аниме | HD Rips ·· Стрелок с Чёрной скалы / Black Rock Shooter (Ёсиока Синобу) [TV] [8 из 8] [без хардсаба] [RUS(ext), JAP+SUB] [2012 г., драма, мистика, BDRip] [720p] L 95462954548.89 GB 0 0 1364662440

19:54

30-Мар-13

Аниме | HD Rips ·· Стрелок с Черной скалы / Black Rock Shooter [TV] [01-08 из 08] [Без хардсаба] [RUS(int), JAP+SUB] [2012 г., Приключения, сёдзё, драма., HDTVRip] [720p] L 36384845403.39 GB 0 0 1364662415

19:53

30-Мар-13

Аниме | HD Rips ·· Стрелок с Черной скалы / Black Rock Shooter [1-8 из 8] [TV] [без хардсаба] [RUS(int), JAP+SUB] [2012, приключения, HDTVRip] [720p] L 34993838153.26 GB 0 0 1364662405

19:53

30-Мар-13

Аниме | DVD ·· Стрелок с Чёрной скалы / Black Rock Shooter (Ёсиока Синобу) [OVA] [1 из 1] [JAP+RUS, SUB] [2010 г., повседневность, драма, мистика, 1xDVD5] [R2J] L 33594060803.13 GB 0 0 1364662388

19:53

30-Мар-13

Аниме | HD Rips ·· Стрелок с Чёрной скалы [ТВ] / Black Rock Shooter (Ёсиока Синобу) [TV] [8 из 8] [без хардсаба] [RUS(ext), JAP+SUB] [2012 г., приключения, HDTVRip] [720p] L 31118931902.9 GB 0 0 1364662374

19:52

30-Мар-13

Аниме | HD Rips ·· Стрелок с Чёрной скалы / Black Rock Shooter (Ёсиока Синобу) [OVA] [1 из 1] [без хардсаба] [RUS(ext), JAP+SUB] [2010 г., повседневность, драма, мистика, BDRip] [720p] L 26147553442.44 GB 0 0 1364662366

19:52

30-Мар-13

Аниме | HD Rips ·· Стрелок с Черной скалы / Black Rock Shooter [1 из 1] [OVA] [без хардсаба] [RUS(int), JAP+SUB] [2010, приключения, BDRip] [720p] L 15180931281.41 GB 0 0 1364662351

19:52

30-Мар-13

Аниме | Rips ·· Стрелок с Чёрной скалы / Black Rock Shooter (Ёсиока Синобу) [OVA] [1 из 1] [Без хардсаба] [RUS(ext),JAP+SUB] [2010 г., приключения, повседневность, махо-сёдзё, DVDRip] L 624131927595 MB 0 0 1364662337

19:52

30-Мар-13

Аниме | HD Rips ·· Стрелок с Черной скалы / Black Rock Shooter [TV] [1-8 из 8] [Без хардсаба] [JAP, RUS(ext), SUB] [2011 г., приключения, сёдзё, драма., HDTVRip] [720p] Galfimbul 36419276113.39 GB 0 0 1343504520

22:42

28-Июл-12

Аниме | Rips ·· Стрелок с Чёрной скалы / Black Rock Shooter [OVA] [1 из 1] [RUS(ext),JAP+SUB] [2010 г., приключения, повседневность, махо-сёдзё, DVDRip][любительская] L 958120275914 MB 0 0 1316936830

10:47

25-Сен-11

Аниме | HD Rips ·· Стрелок с Чёрной скалы / Black Rock Shooter [OVA] [1 из 1] [RUS(ext), JAP+SUB] [2010 г., повседневность, драма, мистика, BDRip] [1080p] [Любительская] Dxe 54584359665.08 GB 0 0 1293351349

11:15

26-Дек-10

Аниме | Blu-Ray и BDRemux ·· Стрелок с Чёрной скалы / Black Rock Shooter [OVA] [1 из 1] [без хардсаба] [RUS(ext), JAP+SUB] [2010 г., повседневность, драма, мистика, BDRemux] [1080p] [Любительская] Dxe 2037514270118.98 GB 0 0 1293214854

21:20

24-Дек-10

Аниме | Rips ·· Стрелок с Чёрной скалы / BLACK ROCK SHOOTER [OVA] [1 из 1] [RUS(int),JAP+SUB] [2010г, повседневность, драма, мистика, DVDRip][Любительская] Nomak 16532745371.54 GB 0 0 1290021460

22:17

17-Ноя-10

Аниме | Rips ·· Стрелок с Чёрной скалы / Black Rock Shooter [OVA] [1 из 1] [RUS(ext), JAP+SUB] [2010 г., повседневность, драма, мистика, DVDRip][Любительская] Nomak 11340461941.06 GB 0 0 1290021374

22:16

17-Ноя-10

Еще никто не оставлял запись к записи скачать торрент Стрелок из скал . Будь первым!

!Обратная связь