Скачать порно через торрент SiLiCA GEL -Game Masters Trap- shirika gel gemumasuta no wana UnionPeer.org бесплатно онлайн HD качество

Скачать новое порно 2015, 2014 новинки через торрент UnionPeer.org

Порно торрент бесплатно ЮнионПир.орг

Если у вас наблюдаются проблемы со скриншотами, переходом по ссылками, скачиванием торрентов - проблемы в блокировщике рекламы AdBlock. #хорошегоДня!


Статистика раздачи
Размер:  350 MB   |    Зарегистрирован:  4 года 6 месяцев   |    .torrent скачан:  1585 раз   |   
Раздают:  3  
   
Загрузка...
 
Автор Сообщение

spider91

avatar spider91


SiLiCA GEL -Game Master's Trap- / シリカgel-ゲームマスターの罠 / Силикагель игре магистра Trap-

Год производства: 2013 г.
Reslese2013/03/28
Жанр: Gangbang, Violation, Rape, Anal, Vibrators, Tentacles, DP
Серии: 1
Продолжительность: 19:44
Цензура: Есть во всех файлах

Язык: Японский
Озвучка: Оригинальная
Субтитры: Встроенные неотключаемые (хардсаб)

Студия: @OZ
DLSITE

Описание:SAO's young Beast-tamer lets herself be sodomized by despicable users.
The idol dreams of SAO's young Beast-tamer are stalled by despicable users
who steal her baby Mage-dragon Pina. As a condition of Pina's freedom
the young girl has to submit to violation: part of the Game Master's
cruel trap. A scheme to sodomize a would-be idol.
The users twist and tease her nipples, stroke her sensitive
pubis through her panties, tongue her clitoris, slip fingers inside her virgin hole,
and she orgasms so hard that she pees herself. A vibrator slides
into her secret tender place, and another inside her anus for a
double stuffed ride until she cum-pisses all over herself.
A penis breaks her virgin sheath, and he assr*pes her over and over
with a vibrator to fulfill her open front hole. Semen blorps a heavy
cumpie up her anus... she's such a young girl...
Then the tentacles. Deep orgasmic spasms slosh her spunk-filled
hole, her overfull womb swollen and developing a child. Squirming limbs
r*pe her face and rectum, gallons of jizz explode inside.
Shrieking and gasping, Silica advances to the next stage.
Идолом мечты молодых САО Зверь-укротитель зашли в тупик по презренный пользователей
кто ворует ребенка Маг-дракон Пина. В качестве условия свободы Пина
Молодая девушка должна представлять нарушение: часть игры магистра
жестокие ловушки.Схема изнасиловать потенциальных кумира.
Пользователям крутить и дразнить ее соски, гладить ее чувствительной
лобок через трусики, языком ее клитор, скольжение пальцами внутри ее девственную дыру,
и она оргазм так сильно, что она писает себе.Вибратор горки
в ее тайном месте тендера, а другой в ее анус для
двойной фаршированные ездить, пока она не кончишь-писает во всем себя.
Член разрывает ее девственную оболочку, и он АССР * пес ее снова и снова
с вибратором выполнить ее открытое отверстие фронт. Семен blorps тяжелым
cumpie до ее ануса ... она такая молодая девушка ...
Тогда щупальца. Глубоко оргазма спазмы залить ее мужество заполненный
Отверстие, ее переполненный утробе распухли и развивается ребенок. корчится конечностей
г * р ее лицо и прямой кишки, галлоны спермы взрывается внутри.
Крича и задыхаясь, кремний переходит на следующий этап.
Доп. информация
Качество видео: GameRip
Формат видео: WMV
Видео кодек: Windows Media
Аудио кодек: WMA
Видео: 2500Kbps 852*480 (16:9) at 29.000 Fps, VC-1 (WMV3)
Аудио: 192Kbps,44.1 KHz, 16 bits, 2 channels, WMA
Video
ID : 2
Format : VC-1
Format profile : MP@HL
Codec ID : WMV3
Codec ID/Info : Windows Media Video 9
Codec ID/Hint : WMV3
Description of the codec : Windows Media Video 9 - Professional
Duration : 19mn 44s
Bit rate mode : Constant
Bit rate : 2 500 Kbps
Width : 852 pixels
Height : 480 pixels
Display aspect ratio : 16:9
Frame rate : 29.000 fps
Bit depth : 8 bits
Scan type : Progressive
Compression mode : Lossy
Bits/(Pixel*Frame) : 0.211
Stream size : 353 MiB
Language : Russian

Audio
ID : 1
Format : WMA
Format version : Version 2
Codec ID : 161
Codec ID/Info : Windows Media Audio
Description of the codec : Windows Media Audio 9.2 - 192 kbps, 44 kHz, stereo (A/V) 1-pass CBR
Duration : 19mn 44s
Bit rate mode : Constant
Bit rate : 192 Kbps
Channel(s) : 2 channels
Sampling rate : 44.1 KHz
Bit depth : 16 bits
Stream size : 27.1 MiB (8%)
Приятного просмотра! Пожалуйста, поддержите раздачу!
Благодарен за Ваши будующие комментарии!

Трекер:  [ 01-Апр-2013 11:21 ]

  

Скачать .torrent

Размер .torrent файла 14 KB


Размер: 350 MB
Хэш (hash) релиза: b3c501b8b15a01a9704c1f440cea0d1d8e04be77

bot

Топик был перенесен в форум Хентай | С цензурой

Перенес Galfimbul

Хотите добавить комментарий к записи скачать торрент SiLiCA GEL -Game Masters Trap- shirika gel gemumasuta no wana

!Обратная связь