Скачать порно через торрент Big Wet Asses 18 Большие Мокрые Задницы 18 UnionPeer.org бесплатно онлайн HD качество

Скачать новое порно 2015, 2014 новинки через торрент UnionPeer.org

Порно торрент бесплатно ЮнионПир.орг

Если у вас наблюдаются проблемы со скриншотами, переходом по ссылками, скачиванием торрентов - проблемы в блокировщике рекламы AdBlock. #хорошегоДня!


Статистика раздачи
Размер:  3.69 GB   |    Зарегистрирован:  4 года 4 месяца   |    .torrent скачан:  216 раз   |   
Раздают:  1  
   
Загрузка...
 
Автор Сообщение

LinGr

avatar LinGr


Big Wet Asses 18 / Большие Мокрые Задницы 18

Год производства: 2010 г.
Страна: США
Жанр: Gonzo, Oiled, Anal, Big Butt
Продолжительность: 01:28:48
Язык: Английский

Режиссер: William H
Студия: Elegant Angel

В ролях: Caroline Pierce, Jennifer White, Jynx Maze, Krissy Lynn, Nikki Sexx, Anthony Rosano, James Deen, Manuel Ferrara, Mick Blue, Mr. Pete

Описание: Big Wet Asses, the winner of AVN's coveted Best Anal Themed Series award for 2006, 2007, & 2008, is back! Elegant Angel is delighted to announce that porn superstar Caroline Pierce, stars in her 1st anal scene. This is the 18th edition ... Full Descriptionof the critically acclaimed series, alongside another stellar assemblage of voluptuous superstars. Big Wet Asses 18 features Jennifer White, Jynx Maze, Nikky Sex and Krissy Lynn.

http://www.cduniverse.com/productinfo.asp?pid=8373955

Доп. материалы и бонусы: нет

Качество видео: HDTV
Тип HD видео: 1080p
Формат видео: MKV
Видео кодек: H.264/AVC
Аудио кодек: AC3
Video: MPEG4 Video (H264) 1920x1080 25.00fps 5577Kbps
Audio: Dolby AC3 48000Hz stereo 256Kbps
Format : Matroska
Format version : Version 2
File size : 3.69 GiB
Duration : 1h 28mn
Overall bit rate : 5 952 Kbps
Encoded date : UTC 2012-01-07 20:27:36
Writing application : mkvmerge v4.5.0 ('Speed of Light') built on Feb 23 2011 01:17:16
Writing library : libebml v1.2.0 libmatroska v1.1.0

Video
ID : 1
Format : AVC
Format/Info : Advanced Video Codec
Format profile : High@L4.1
Format settings, CABAC : Yes
Format settings, ReFrames : 4 frames
Muxing mode : Header stripping
Codec ID : V_MPEG4/ISO/AVC
Duration : 1h 28mn
Bit rate : 5 577 Kbps
Width : 1 920 pixels
Height : 1 080 pixels
Display aspect ratio : 16:9
Frame rate mode : Variable
Frame rate : 25.000 fps
Color space : YUV
Chroma subsampling : 4:2:0
Bit depth : 8 bits
Scan type : Progressive
Bits/(Pixel*Frame) : 0.108
Stream size : 3.46 GiB (94%)
Writing library : x264 core 119
Encoding settings : cabac=1 / ref=4 / deblock=1:0:0 / analyse=0x3:0x113 / me=umh / subme=7 / psy=1 / psy_rd=1.00:0.00 / mixed_ref=1 / me_range=16 / chroma_me=1 / trellis=1 / 8x8dct=1 / cqm=0 / deadzone=21,11 / fast_pskip=0 / chroma_qp_offset=-2 / threads=12 / sliced_threads=0 / nr=0 / decimate=1 / interlaced=0 / bluray_compat=0 / constrained_intra=0 / bframes=3 / b_pyramid=2 / b_adapt=1 / b_bias=0 / direct=1 / weightb=1 / open_gop=0 / weightp=2 / keyint=250 / keyint_min=25 / scenecut=40 / intra_refresh=0 / rc_lookahead=40 / rc=crf / mbtree=1 / crf=20.0 / qcomp=0.60 / qpmin=3 / qpmax=69 / qpstep=4 / ip_ratio=1.40 / aq=1:1.00
Language : English
Color primaries : BT.709-5, BT.1361, IEC 61966-2-4, SMPTE RP177
Transfer characteristics : BT.709-5, BT.1361
Matrix coefficients : BT.709-5, BT.1361, IEC 61966-2-4 709, SMPTE RP177

Audio
ID : 2
Format : AC-3
Format/Info : Audio Coding 3
Mode extension : CM (complete main)
Muxing mode : Header stripping
Codec ID : A_AC3
Duration : 1h 28mn
Bit rate mode : Constant
Bit rate : 256 Kbps
Channel(s) : 2 channels
Channel positions : Front: L R
Sampling rate : 48.0 KHz
Bit depth : 16 bits
Compression mode : Lossy
Stream size : 163 MiB (4%)
Language : English


Трекер:  [ 30-Мар-2013 00:27 ]

  

Скачать .torrent

Размер .torrent файла 19 KB


Размер: 3.69 GB
Хэш (hash) релиза: be169908d63c8d9f5757b70d79b06df6d6787430

Торренты, похожие на Big Wet Asses 18 Большие Мокрые Задницы 18 скачать торрент

Форум Название Автор Размер S L Добавлен
Гонзо-фильмы ·· Big Wet Asses 10 / Большие мокрые задницы 10 (William H. / Elegant Angel) [2007 г., Enlarge All models over 18 Running Time: 96 minutes Released: 01/2007 Studio: Elegant Angel Series: Big Wet Asses Director: William H Cat Galfimbul 14582171701.36 GB 0 0 1364382530

14:08

27-Мар-13

Еще никто не оставлял запись к записи скачать торрент Big Wet Asses 18 Большие Мокрые Задницы 18 . Будь первым!

!Обратная связь