Скачать через торрент Ван Пис: Фильм шестой One Piece Movie 6: Baron Omatsuri and the Secret Island бесплатно Аниме Все серии на русском torrent

Если у вас наблюдаются проблемы со скриншотами, переходом по ссылками, скачиванием торрентов - проблемы в блокировщике рекламы AdBlock. #хорошегоДня!


Статистика раздачи
Размер:  1.81 GB   |    Зарегистрирован:  4 года 6 месяцев   |    .torrent скачан:  49 раз   |   
Раздают:  1  
   
Загрузка...
 
Автор Сообщение

L


Ван Пис: Фильм шестой
One Piece Movie 6: Baron Omatsuri and the Secret Island

Премьера: 05.03.2005
Страна: Япония
Жанр: приключения, комедия, сёнэн
Продолжительность: 92 мин.
Перевод: субтитры
Хардсаб: нет
Режиссёр: Хосода Мамору
«Если ты — самый пиратистый из самых пиратистых пиратов, то держи курс на остров Омацури, где тебя ожидает райский отдых на лучшем из курортов Гранд Лайн.» — так гласит послание, найденное командой Соломенной Шляпы в открытом океане. Конечно же, самый пиратистый пират по имени Луффи тотчас устремляется посетить остров карнавалов. Однако они находят весьма необычный прием. Вместо спа-салонов и неземных красоток их ожидает испытание ада! Команда верных друзей ещё не подозревает, какие суровые испытания предстоит им пройти. Это, наверное, самый серьёзный и самый страшный из всех фильмов One Piece. Основной вопрос, который задается герою: «Захочешь ли ты продолжать жить дальше, если все твои накама умрут?»
Качество: BDRip [720p]
Энкод: damex
Скачать: СЭМПЛ
Тип видео: Без хардсаба
Формат: MKV
Субтитры: Russian, (от Living FLCL) - в составе контейнера
Видео: MPEG4 Video (H264 Hi10p) 1280x720 23.976fps 2 132 Kbps
Аудио: Dolby AC3 48000Hz 6ch 640 Kbps
Format : MatroskaFormat version : Version 4 / Version 2File size : 1.81 GiBDuration : 1h 31mnOverall bit rate : 2 829 KbpsEncoded date : UTC 2010-02-22 21:41:31Writing application : mkvmerge v5.9.0 (''On The Loose'') built on Dec 9 2012 15:37:01Writing library : libebml v1.3.0 + libmatroska v1.4.0

VideoID : 1Format : AVCFormat/Info : Advanced Video CodecFormat profile : High 10@L4.1Format settings, CABAC : YesFormat settings, ReFrames : 9 framesMuxing mode : Header strippingCodec ID : V_MPEG4/ISO/AVCDuration : 1h 31mnBit rate : 2 132 KbpsWidth : 1 280 pixelsHeight : 720 pixelsDisplay aspect ratio : 16:9Frame rate : 23.976 fpsColor space : YUVChroma subsampling : 4:2:0Bit depth : 10 bitsScan type : ProgressiveBits/(Pixel*Frame) : 0.097Stream size : 1.36 GiB (75%)Title : BDrip by damexWriting library : x264 core 118 r2085+614 d1cc25dEncoding settings : cabac=1 / ref=9 / deblock=1:-1:-1 / analyse=0x3:0x133 / me=umh / subme=9 / psy=1 / fade_compensate=0.00 / psy_rd=1.00:0.00 / mixed_ref=1 / me_range=24 / chroma_me=1 / trellis=2 / 8x8dct=1 / cqm=0 / deadzone=21,11 / fast_pskip=1 / chroma_qp_offset=-2 / threads=24 / sliced_threads=0 / nr=0 / decimate=0 / interlaced=0 / bluray_compat=0 / constrained_intra=0 / fgo=0 / bframes=12 / b_pyramid=2 / b_adapt=2 / b_bias=0 / direct=3 / weightb=1 / open_gop=0 / weightp=2 / keyint=250 / keyint_min=23 / scenecut=40 / intra_refresh=0 / rc_lookahead=40 / rc=crf / mbtree=0 / crf=18.0 / qcomp=0.60 / qpmin=0 / qpmax=51 / qpstep=4 / vbv_maxrate=50000 / vbv_bufsize=75000 / crf_max=0.0 / nal_hrd=none / ip_ratio=1.40 / pb_ratio=1.30 / aq=1:1.00Language : JapaneseDefault : YesForced : No

AudioID : 2Format : AC-3Format/Info : Audio Coding 3Mode extension : CM (complete main)Format settings, Endianness : BigMuxing mode : Header strippingCodec ID : A_AC3Duration : 1h 31mnBit rate mode : ConstantBit rate : 640 KbpsChannel(s) : 6 channelsChannel positions : Front: L C R, Side: L R, LFESampling rate : 48.0 KHzBit depth : 16 bitsCompression mode : LossyStream size : 419 MiB (23%)Title : AC-3Language : JapaneseDefault : YesForced : No

TextID : 3Format : UTF-8Codec ID : S_TEXT/UTF8Codec ID/Info : UTF-8 Plain TextLanguage : RussianDefault : YesForced : No


Трекер:  [ 29-Мар-2013 11:52 ]

  

Скачать .torrent

Размер .torrent файла 18 KB


Размер: 1.81 GB
Хэш (hash) релиза: 3b3809df29f0d30c1289ebf07d9f21cc8d6a4f05
Подписка на обновления:

Торренты, похожие на Ван Пис: Фильм шестой One Piece Movie 6: Baron Omatsuri and the Secret Island скачать торрент

Форум Название Автор Размер S L Добавлен
Ван-Пис | One Piece ·· Ван Пис: Фильм шестой / One Piece Movie 6: Baron Omatsuri and the Secret Island (Хосода Мамору) [Movie] [без хардсаба] [JAP+SUB] [2005 г., приключения, комедия, сёнэн, BDRemux] [1080p] L 1928029794417.96 GB 0 0 1364542955

10:42

29-Мар-13

Ван-Пис | One Piece ·· Ван Пис: Фильм шестой / One Piece Movie 6: Baron Omatsuri and the Secret Island (Хосода Мамору) [Movie] [без хардсаба] [JAP+SUB] [2005 г., приключения, комедия, сёнэн, BDRip] [1080p] L 61347106855.71 GB 0 0 1364542807

10:40

29-Мар-13

Аниме | HD Rips ·· Ван-Пис: Фильм шестой / One Piece The Movie 6 : Baron Omatsuri and the Secret Island (Такэноти Кадзухиса) [Movie] [без хардсаба] [RUS(int), JAP+SUB] [2005, приключения, комедия, фэнтези, BDRip] [720p] Galfimbul 27650754982.58 GB 0 0 1493539559

11:05

30-Апр-17

Аниме | Rips ·· Ван-Пис: Фильм шестой / One Piece The Movie 6 : Baron Omatsuri and the Secret Island (Такэноти Кадзухиса) [Movie] [без хардсаба] [RUS(int), JAP+SUB] [2005, приключения, комедия, фэнтези, BDRip] Galfimbul 16054590181.5 GB 0 0 1493537680

10:34

30-Апр-17

Еще никто не оставлял запись к записи скачать торрент Ван Пис: Фильм шестой One Piece Movie 6: Baron Omatsuri and the Secret Island . Будь первым!

!Обратная связь