-: One Piece: Clockwork Island Adventure torrent

, , - AdBlock. #!


14.53 GB   |    :  4 4    |    .torrent :  45    |   
1  
   
...
 

L


-:
One Piece: Nejimaki Jima no Bouken
: 2001
:
: , ,
: 00:55:06
:

Puto
:

(.)
(.) Persona99
:
:
:
... -, , . : , ( , ), ... , , ! , , , . , : , , , ; , ; ( !) , -.
56- .
: AniDB || World Art || MAL
: BDRemux
:
: mkv
: H.264, 1920x1080, 34764 Kbps, 23.976fps
RUS 1: AC3, 48000Hz, 448 Kbps, 2ch
RUS 2: AC3, 48000Hz, 224 Kbps, 2ch
JAP: DTS-HD MA, 48000Hz, 2326 Kbps, 6ch, 16-bit
General
Unique ID : 200377600614163284628297723547099128481 (0x96BF52768109852C87BFB2D8A7ECE2A1)
Complete name : H:\For Torrents.ru\One.Piece.Clockwork.Island.Adventure.mkv
Format : Matroska
Format version : Version 2
File size : 14.5 GiB
Duration : 1h 0mn
Overall bit rate mode : Variable
Overall bit rate : 34.5 Mbps
Encoded date : UTC 2012-05-15 21:13:28
Writing application : mkvmerge v5.5.0 ('Healer') built on Apr 6 2012 21:43:24
Writing library : libebml v1.2.3 + libmatroska v1.3.0
Attachment : Yes / Yes / Yes / Yes / Yes

Video
ID : 1
Format : AVC
Format/Info : Advanced Video Codec
Format profile : High@L4.1
Format settings, CABAC : Yes
Format settings, ReFrames : 4 frames
Muxing mode : Container profile=Unknown@0.0
Codec ID : V_MPEG4/ISO/AVC
Duration : 1h 0mn
Bit rate mode : Variable
Bit rate : 31.6 Mbps
Maximum bit rate : 36.0 Mbps
Width : 1 920 pixels
Height : 1 080 pixels
Display aspect ratio : 16:9
Frame rate : 23.976 fps
Color space : YUV
Chroma subsampling : 4:2:0
Bit depth : 8 bits
Scan type : Progressive
Bits/(Pixel*Frame) : 0.635
Stream size : 13.3 GiB (92%)
Default : No
Forced : No
Color primaries : BT.709-5, BT.1361, IEC 61966-2-4, SMPTE RP177
Transfer characteristics : BT.709-5, BT.1361
Matrix coefficients : BT.709-5, BT.1361, IEC 61966-2-4 709, SMPTE RP177

Audio #1
ID : 2
Format : AC-3
Format/Info : Audio Coding 3
Mode extension : CM (complete main)
Format settings, Endianness : Big
Muxing mode : Header stripping
Codec ID : A_AC3
Duration : 1h 0mn
Bit rate mode : Constant
Bit rate : 448 Kbps
Channel(s) : 2 channels
Channel positions : Front: L R
Sampling rate : 48.0 KHz
Bit depth : 16 bits
Compression mode : Lossy
Stream size : 193 MiB (1%)
Title : AC3, 2ch 448 kbps (, . )
Language : Russian
Default : Yes
Forced : No

Audio #2
ID : 3
Format : AC-3
Format/Info : Audio Coding 3
Mode extension : CM (complete main)
Format settings, Endianness : Big
Muxing mode : Header stripping
Codec ID : A_AC3
Duration : 1h 0mn
Bit rate mode : Constant
Bit rate : 224 Kbps
Channel(s) : 2 channels
Channel positions : Front: L R
Sampling rate : 48.0 KHz
Bit depth : 16 bits
Compression mode : Lossy
Stream size : 96.7 MiB (1%)
Title : AC3, 2ch 224 kbps (, persona99)
Language : Russian
Default : No
Forced : No

Audio #3
ID : 4
Format : DTS
Format/Info : Digital Theater Systems
Format profile : MA / Core
Muxing mode : Header stripping
Codec ID : A_DTS
Duration : 1h 0mn
Bit rate mode : Variable
Bit rate : 1 561 Kbps / 1 510 Kbps
Channel(s) : 6 channels
Channel positions : Front: L C R, Side: L R, LFE
Sampling rate : 48.0 KHz
Bit depth : 16 bits
Compression mode : Lossless / Lossy
Title : DTS-HD MA, 6ch 2326 kbps
Language : Japanese
Default : No
Forced : No

Text #1
ID : 5
Format : ASS
Codec ID : S_TEXT/ASS
Codec ID/Info : Advanced Sub Station Alpha
Compression mode : Lossless
Language : Russian
Default : No
Forced : No

Text #2
ID : 6
Format : ASS
Codec ID : S_TEXT/ASS
Codec ID/Info : Advanced Sub Station Alpha
Compression mode : Lossless
Language : English
Default : No
Forced : No

Menu
00:00:00.000 : en:00:00:00.000
00:01:42.352 : en:00:01:42.352
00:04:20.218 : en:00:04:20.218
00:08:12.742 : en:00:08:12.742
00:09:13.595 : en:00:09:13.595
00:16:24.275 : en:00:16:24.275
00:19:51.565 : en:00:19:51.565
00:25:19.643 : en:00:25:19.643
00:29:32.562 : en:00:29:32.562
00:36:47.705 : en:00:36:47.705
00:39:11.432 : en:00:39:11.432
00:40:24.839 : en:00:40:24.839
00:41:54.345 : en:00:41:54.345
00:42:52.361 : en:00:42:52.361
00:45:19.008 : en:00:45:19.008
00:46:34.208 : en:00:46:34.208
00:47:59.460 : en:00:47:59.460
00:53:19.029 : en:00:53:19.029
Disc Title: (One Piece Movie 2001)[BDMV]
Disc Size: 18805666500 bytes
Protection: AACS
BD-Java: No
BDInfo: 0.5.6

Notes:

BDINFO HOME:
Cinema Squid
http://www.cinemasquid.com/blu-ray/tools/bdinfo

INCLUDES FORUMS REPORT FOR:
AVS Forum Blu-ray Audio and Video Specifications Thread
http://www.avsforum.com/avs-vb/showthread.php?t=1155731

********************
PLAYLIST: 00001.MPLS
********************

<--- BEGIN FORUMS PASTE --->
Total Video
Title Codec Length Movie Size Disc Size Bitrate Bitrate Main Audio Track Secondary Audio Track
----- ------ ------- -------------- -------------- ------- ------- ------------------ ---------------------
00001.MPLS AVC 0:55:06 16689500160 18805666500 40,38 34,85 Dolby TrueHD 5.1 1823Kbps (48kHz/16-bit)
DISC INFO:

Disc Title: (One Piece Movie 2001)[BDMV]
Disc Size: 18805666500 bytes
Protection: AACS
BD-Java: No
BDInfo: 0.5.6

PLAYLIST REPORT:

Name: 00001.MPLS
Length: 0:55:06 (h:m:s)
Size: 16689500160 bytes
Total Bitrate: 40,38 Mbps

VIDEO:

Codec Bitrate Description
----- ------- -----------
MPEG-4 AVC Video 34847 kbps 1080p / 23,976 fps / 16:9 / High Profile 4.1

AUDIO:

Codec Language Bitrate Description
----- -------- ------- -----------
Dolby TrueHD Audio Japanese 1823 kbps 5.1 / 48 kHz / 1823 kbps / 16-bit (AC3 Embedded: 5.1 / 48 kHz / 640 kbps / DN -4dB)

SUBTITLES:

Codec Language Bitrate Description
----- -------- ------- -----------
Presentation Graphics Japanese 63,339 kbps

FILES:

Name Time In Length Size Total Bitrate
---- ------- ------ ---- -------------
00001.M2TS 0:00:00.000 0:55:06.177 16689500160 40384

CHAPTERS:

Number Time In Length Avg Video Rate Max 1-Sec Rate Max 1-Sec Time Max 5-Sec Rate Max 5-Sec Time Max 10Sec Rate Max 10Sec Time Avg Frame Size Max Frame Size Max Frame Time
------ ------- ------ -------------- -------------- -------------- -------------- -------------- -------------- -------------- -------------- -------------- --------------
1 0:00:00.000 0:01:42.352 34066 kbps 37492 kbps 00:01:22.791 35824 kbps 00:01:32.217 35590 kbps 00:01:29.255 177530 bytes 369575 bytes 00:01:32.383
2 0:01:42.352 0:02:37.866 35144 kbps 37549 kbps 00:02:30.567 36245 kbps 00:02:57.385 35988 kbps 00:02:59.387 183223 bytes 405502 bytes 00:03:38.801
3 0:04:20.218 0:03:52.523 35259 kbps 40398 kbps 00:06:01.611 36620 kbps 00:05:57.648 36188 kbps 00:05:52.560 183822 bytes 409307 bytes 00:04:41.197
4 0:08:12.742 0:01:00.852 35471 kbps 37177 kbps 00:08:50.863 36060 kbps 00:08:49.862 35952 kbps 00:08:49.862 184932 bytes 395756 bytes 00:08:18.748
5 0:09:13.594 0:07:10.680 35013 kbps 38787 kbps 00:14:17.356 36132 kbps 00:11:05.373 35980 kbps 00:09:31.988 182544 bytes 429124 bytes 00:15:14.455
6 0:16:24.274 0:03:27.290 34281 kbps 37503 kbps 00:19:02.182 36114 kbps 00:19:10.440 35907 kbps 00:19:13.694 178726 bytes 419049 bytes 00:17:20.664
7 0:19:51.565 0:05:28.077 35198 kbps 39805 kbps 00:23:53.140 36728 kbps 00:23:49.094 36019 kbps 00:24:56.453 183506 bytes 413304 bytes 00:23:58.854
8 0:25:19.643 0:04:12.919 35324 kbps 38510 kbps 00:29:20.091 36224 kbps 00:26:04.396 35929 kbps 00:25:30.195 184164 bytes 399354 bytes 00:26:53.987
9 0:29:32.562 0:07:15.143 34060 kbps 38077 kbps 00:36:46.537 36072 kbps 00:33:55.241 35691 kbps 00:32:59.519 177573 bytes 416520 bytes 00:35:53.484
10 0:36:47.705 0:02:23.726 34615 kbps 37773 kbps 00:38:28.806 36146 kbps 00:37:24.533 35957 kbps 00:37:19.153 180469 bytes 412641 bytes 00:37:39.590
11 0:39:11.432 0:01:13.406 35105 kbps 40062 kbps 00:39:49.929 36118 kbps 00:39:49.887 35972 kbps 00:39:50.012 183022 bytes 415917 bytes 00:39:14.435
12 0:40:24.839 0:01:29.506 34680 kbps 39655 kbps 00:40:48.529 36206 kbps 00:40:30.594 35989 kbps 00:40:25.798 180808 bytes 444166 bytes 00:40:39.478
13 0:41:54.345 0:00:58.016 35297 kbps 39180 kbps 00:41:55.679 35979 kbps 00:42:42.768 35774 kbps 00:42:37.680 184021 bytes 379821 bytes 00:42:46.605
14 0:42:52.361 0:02:26.646 34917 kbps 39144 kbps 00:44:04.725 36207 kbps 00:44:19.406 35936 kbps 00:45:01.657 182043 bytes 381891 bytes 00:43:26.604
15 0:45:19.007 0:01:15.200 35110 kbps 38097 kbps 00:45:28.267 36202 kbps 00:46:13.437 35814 kbps 00:45:52.332 183045 bytes 396874 bytes 00:46:18.400
16 0:46:34.208 0:01:25.251 34854 kbps 38215 kbps 00:46:45.010 36119 kbps 00:47:52.744 35935 kbps 00:47:46.572 181713 bytes 413609 bytes 00:47:39.606
17 0:47:59.459 0:05:19.569 35181 kbps 38039 kbps 00:50:47.294 36220 kbps 00:51:09.357 36002 kbps 00:50:25.480 183418 bytes 406626 bytes 00:51:18.950
18 0:53:19.029 0:01:47.148 34084 kbps 39233 kbps 00:53:46.389 36192 kbps 00:53:59.945 35949 kbps 00:53:58.860 177768 bytes 416794 bytes 00:54:14.876

STREAM DIAGNOSTICS:

File PID Type Codec Language Seconds Bitrate Bytes Packets
---- --- ---- ----- -------- -------------- -------------- ------------- -----
00001.M2TS 4113 (0x1011) 0x1B AVC 3306,011 34849 14401392881 78314727
00001.M2TS 4352 (0x1100) 0x83 TrueHD jpn (Japanese) 3306,011 2463 1017890602 8346645
00001.M2TS 4608 (0x1200) 0x90 PGS jpn (Japanese) 3306,011 63 26176303 152304
<---- END FORUMS PASTE ---->

QUICK SUMMARY:

Disc Title: (One Piece Movie 2001)[BDMV]
Disc Size: 18805666500 bytes
Protection: AACS
BD-Java: No
Playlist: 00001.MPLS
Size: 16689500160 bytes
Length: 0:55:06
Total Bitrate: 40,38 Mbps
Video: MPEG-4 AVC Video / 34847 kbps / 1080p / 23,976 fps / 16:9 / High Profile 4.1
Audio: Japanese / Dolby TrueHD Audio / 5.1 / 48 kHz / 1823 kbps / 16-bit (AC3 Embedded: 5.1 / 48 kHz / 640 kbps / DN -4dB)
Subtitle: Japanese / 63,339 kbps

********************
PLAYLIST: 00003.MPLS
********************

<--- BEGIN FORUMS PASTE --->
Total Video
Title Codec Length Movie Size Disc Size Bitrate Bitrate Main Audio Track Secondary Audio Track
----- ------ ------- -------------- -------------- ------- ------- ------------------ ---------------------
00003.MPLS AVC 0:05:34 1696899072 18805666500 40,60 34,87 Dolby TrueHD 5.1 2030Kbps (48kHz/16-bit)
DISC INFO:

Disc Title: (One Piece Movie 2001)[BDMV]
Disc Size: 18805666500 bytes
Protection: AACS
BD-Java: No
BDInfo: 0.5.6

PLAYLIST REPORT:

Name: 00003.MPLS
Length: 0:05:34 (h:m:s)
Size: 1696899072 bytes
Total Bitrate: 40,60 Mbps

VIDEO:

Codec Bitrate Description
----- ------- -----------
MPEG-4 AVC Video 34871 kbps 1080p / 23,976 fps / 16:9 / High Profile 4.1

AUDIO:

Codec Language Bitrate Description
----- -------- ------- -----------
Dolby TrueHD Audio Japanese 2030 kbps 5.1 / 48 kHz / 2030 kbps / 16-bit (AC3 Embedded: 5.1 / 48 kHz / 640 kbps / DN -4dB)

SUBTITLES:

Codec Language Bitrate Description
----- -------- ------- -----------
Presentation Graphics Japanese 39,321 kbps

FILES:

Name Time In Length Size Total Bitrate
---- ------- ------ ---- -------------
00003.M2TS 0:00:00.000 0:05:34.333 1696899072 40604

CHAPTERS:

Number Time In Length Avg Video Rate Max 1-Sec Rate Max 1-Sec Time Max 5-Sec Rate Max 5-Sec Time Max 10Sec Rate Max 10Sec Time Avg Frame Size Max Frame Size Max Frame Time
------ ------- ------ -------------- -------------- -------------- -------------- -------------- -------------- -------------- -------------- -------------- --------------
1 0:00:00.000 0:05:34.333 34871 kbps 51060 kbps 00:00:05.422 37970 kbps 00:00:01.334 36084 kbps 00:03:40.595 181802 bytes 499132 bytes 00:00:06.005

STREAM DIAGNOSTICS:

File PID Type Codec Language Seconds Bitrate Bytes Packets
---- --- ---- ----- -------- -------------- -------------- ------------- -----
00003.M2TS 4113 (0x1011) 0x1B AVC 334,167 34888 1457321797 7924937
00003.M2TS 4352 (0x1100) 0x83 TrueHD jpn (Japanese) 334,167 2671 111581338 892141
00003.M2TS 4608 (0x1200) 0x90 PGS jpn (Japanese) 334,167 39 1643292 9687
<---- END FORUMS PASTE ---->

QUICK SUMMARY:

Disc Title: (One Piece Movie 2001)[BDMV]
Disc Size: 18805666500 bytes
Protection: AACS
BD-Java: No
Playlist: 00003.MPLS
Size: 1696899072 bytes
Length: 0:05:34
Total Bitrate: 40,60 Mbps
Video: MPEG-4 AVC Video / 34871 kbps / 1080p / 23,976 fps / 16:9 / High Profile 4.1
Audio: Japanese / Dolby TrueHD Audio / 5.1 / 48 kHz / 2030 kbps / 16-bit (AC3 Embedded: 5.1 / 48 kHz / 640 kbps / DN -4dB)
Subtitle: Japanese / 39,321 kbps

********************
PLAYLIST: 00004.MPLS
********************

<--- BEGIN FORUMS PASTE --->
Total Video
Title Codec Length Movie Size Disc Size Bitrate Bitrate Main Audio Track Secondary Audio Track
----- ------ ------- -------------- -------------- ------- ------- ------------------ ---------------------
00004.MPLS AVC 0:00:59 286820352 18805666500 38,28 34,85 LPCM 2.0 1536Kbps (48kHz/16-bit)
DISC INFO:

Disc Title: (One Piece Movie 2001)[BDMV]
Disc Size: 18805666500 bytes
Protection: AACS
BD-Java: No
BDInfo: 0.5.6

PLAYLIST REPORT:

Name: 00004.MPLS
Length: 0:00:59 (h:m:s)
Size: 286820352 bytes
Total Bitrate: 38,28 Mbps

VIDEO:

Codec Bitrate Description
----- ------- -----------
MPEG-4 AVC Video 34853 kbps 1080p / 23,976 fps / 16:9 / High Profile 4.1

AUDIO:

Codec Language Bitrate Description
----- -------- ------- -----------
LPCM Audio Japanese 1536 kbps 2.0 / 48 kHz / 1536 kbps / 16-bit

FILES:

Name Time In Length Size Total Bitrate
---- ------- ------ ---- -------------
00004.M2TS 0:00:00.000 0:00:59.934 286820352 38284

CHAPTERS:

Number Time In Length Avg Video Rate Max 1-Sec Rate Max 1-Sec Time Max 5-Sec Rate Max 5-Sec Time Max 10Sec Rate Max 10Sec Time Avg Frame Size Max Frame Size Max Frame Time
------ ------- ------ -------------- -------------- -------------- -------------- -------------- -------------- -------------- -------------- -------------- --------------
1 0:00:00.000 0:00:59.934 34853 kbps 37919 kbps 00:00:47.672 36109 kbps 00:00:39.122 35905 kbps 00:00:20.270 181705 bytes 340012 bytes 00:00:24.733

STREAM DIAGNOSTICS:

File PID Type Codec Language Seconds Bitrate Bytes Packets
---- --- ---- ----- -------- -------------- -------------- ------------- -----
00004.M2TS 4113 (0x1011) 0x1B AVC 59,768 34950 261110774 1419902
00004.M2TS 4352 (0x1100) 0x80 LPCM jpn (Japanese) 59,768 1547 11555468 71922
<---- END FORUMS PASTE ---->

QUICK SUMMARY:

Disc Title: (One Piece Movie 2001)[BDMV]
Disc Size: 18805666500 bytes
Protection: AACS
BD-Java: No
Playlist: 00004.MPLS
Size: 286820352 bytes
Length: 0:00:59
Total Bitrate: 38,28 Mbps
Video: MPEG-4 AVC Video / 34853 kbps / 1080p / 23,976 fps / 16:9 / High Profile 4.1
Audio: Japanese / LPCM Audio / 2.0 / 48 kHz / 1536 kbps / 16-bit

********************
PLAYLIST: 00000.MPLS
********************

<--- BEGIN FORUMS PASTE --->
Total Video
Title Codec Length Movie Size Disc Size Bitrate Bitrate Main Audio Track Secondary Audio Track
----- ------ ------- -------------- -------------- ------- ------- ------------------ ---------------------
00000.MPLS AVC 0:00:27 54540288 18805666500 16,14 12,11 Dolby TrueHD 5.1 1575Kbps (48kHz/16-bit)
DISC INFO:

Disc Title: (One Piece Movie 2001)[BDMV]
Disc Size: 18805666500 bytes
Protection: AACS
BD-Java: No
BDInfo: 0.5.6

PLAYLIST REPORT:

Name: 00000.MPLS
Length: 0:00:27 (h:m:s)
Size: 54540288 bytes
Total Bitrate: 16,14 Mbps

VIDEO:

Codec Bitrate Description
----- ------- -----------
MPEG-4 AVC Video 12108 kbps 1080p / 23,976 fps / 16:9 / High Profile 4.1

AUDIO:

Codec Language Bitrate Description
----- -------- ------- -----------
Dolby TrueHD Audio Japanese 1575 kbps 5.1 / 48 kHz / 1575 kbps / 16-bit (AC3 Embedded: 5.1 / 48 kHz / 640 kbps / DN -12dB)

FILES:

Name Time In Length Size Total Bitrate
---- ------- ------ ---- -------------
00000.M2TS 0:00:00.000 0:00:27.027 54540288 16144

CHAPTERS:

Number Time In Length Avg Video Rate Max 1-Sec Rate Max 1-Sec Time Max 5-Sec Rate Max 5-Sec Time Max 10Sec Rate Max 10Sec Time Avg Frame Size Max Frame Size Max Frame Time
------ ------- ------ -------------- -------------- -------------- -------------- -------------- -------------- -------------- -------------- -------------- --------------
1 0:00:00.000 0:00:27.027 12108 kbps 55091 kbps 00:00:15.682 37082 kbps 00:00:15.682 28201 kbps 00:00:13.263 63224 bytes 410907 bytes 00:00:19.853

STREAM DIAGNOSTICS:

File PID Type Codec Language Seconds Bitrate Bytes Packets
---- --- ---- ----- -------- -------------- -------------- ------------- -----
00000.M2TS 4113 (0x1011) 0x1B AVC 26,944 12146 40905898 222616
00000.M2TS 4352 (0x1100) 0x83 TrueHD jpn (Japanese) 26,944 2222 7482210 60500
<---- END FORUMS PASTE ---->

QUICK SUMMARY:

Disc Title: (One Piece Movie 2001)[BDMV]
Disc Size: 18805666500 bytes
Protection: AACS
BD-Java: No
Playlist: 00000.MPLS
Size: 54540288 bytes
Length: 0:00:27
Total Bitrate: 16,14 Mbps
Video: MPEG-4 AVC Video / 12108 kbps / 1080p / 23,976 fps / 16:9 / High Profile 4.1
Audio: Japanese / Dolby TrueHD Audio / 5.1 / 48 kHz / 1575 kbps / 16-bit (AC3 Embedded: 5.1 / 48 kHz / 640 kbps / DN -12dB)


 ·  , , FAQ-
:  [ 29--2013 10:41 ]

  

.torrent

.torrent 37 KB


: 14.53 GB
(hash) : db40f1add339d6d2ec7b4bed5a75fe7a185c1e23
:
··
...

-: One Piece: Clockwork Island Adventure . !

!