-: One Piece: The Great Gold Pirate torrent

, , - AdBlock. #!


13.6 GB   |    :  4 4    |    .torrent :  47    |   
1  
   
...
 

L


-:
One Piece: The Great Gold Pirate
: 2000
:
: , ,
: 00:51:01
:

Puto
:

Animedia
(: Shachiburi, ITLM, Silv, Say, Eladiel, Jam, Lupin)

(.)
(.) Persona99
:
:
:
- . , , . , , - . , , .
!
18- .
: AniDB || World Art || MAL
: BDRemux
:
: mkv
: H.264, 1920x1080, 34912 Kbps, 23.976fps
RUS 1: AC3, 48000Hz, 224 Kbps, 2ch
RUS 2: DTS-HD MA, 48000Hz, 1763 Kbps, 2ch, 24-bit
RUS 3: AC3, 48000Hz, 224 Kbps, 2ch
JAP: DTS-HD MA, 48000Hz, 1042 Kbps, 2ch, 16-bit
General
Unique ID : 216454013413257743172955688357275165851 (0xA2D786CF5BC3CF04BD35BE6F1DECE49B)
Complete name : H:\For Torrents.ru\One.Piece.The.Great.Gold.Pirate.mkv
Format : Matroska
Format version : Version 2
File size : 13.6 GiB
Duration : 51mn 0s
Overall bit rate mode : Variable
Overall bit rate : 38.2 Mbps
Encoded date : UTC 2012-05-07 12:30:42
Writing application : mkvmerge v5.5.0 (''Healer'') built on Apr 6 2012 21:43:24
Writing library : libebml v1.2.3 + libmatroska v1.3.0
Attachment : Yes / Yes / Yes / Yes

Video
ID : 1
Format : AVC
Format/Info : Advanced Video Codec
Format profile : High@L4.1
Format settings, CABAC : Yes
Format settings, ReFrames : 4 frames
Muxing mode : Container profile=Unknown@0.0
Codec ID : V_MPEG4/ISO/AVC
Duration : 51mn 0s
Bit rate mode : Variable
Bit rate : 35.3 Mbps
Maximum bit rate : 36.0 Mbps
Width : 1 920 pixels
Height : 1 080 pixels
Display aspect ratio : 16:9
Frame rate : 23.976 fps
Color space : YUV
Chroma subsampling : 4:2:0
Bit depth : 8 bits
Scan type : Progressive
Bits/(Pixel*Frame) : 0.711
Stream size : 12.6 GiB (93%)
Default : No
Forced : No
Color primaries : BT.709-5, BT.1361, IEC 61966-2-4, SMPTE RP177
Transfer characteristics : BT.709-5, BT.1361
Matrix coefficients : BT.709-5, BT.1361, IEC 61966-2-4 709, SMPTE RP177

Audio #1
ID : 2
Format : AC-3
Format/Info : Audio Coding 3
Mode extension : CM (complete main)
Format settings, Endianness : Big
Muxing mode : Header stripping
Codec ID : A_AC3
Duration : 51mn 0s
Bit rate mode : Constant
Bit rate : 224 Kbps
Channel(s) : 2 channels
Channel positions : Front: L R
Sampling rate : 48.0 KHz
Bit depth : 16 bits
Compression mode : Lossy
Stream size : 81.7 MiB (1%)
Title : AC3, 2ch 224 kbps (, Animedia)
Language : Russian
Default : Yes
Forced : No

Audio #2
ID : 3
Format : DTS
Format/Info : Digital Theater Systems
Format profile : MA / Core
Muxing mode : Header stripping
Codec ID : A_DTS
Duration : 51mn 0s
Bit rate mode : Variable
Bit rate : 803 Kbps / 755 Kbps
Channel(s) : 2 channels
Channel positions : Front: L R
Sampling rate : 48.0 KHz
Bit depth : 24 bits
Compression mode : Lossless / Lossy
Title : DTS-HD MA, 2ch 1763 kbps (, . )
Language : Russian
Default : No
Forced : No

Audio #3
ID : 4
Format : AC-3
Format/Info : Audio Coding 3
Mode extension : CM (complete main)
Format settings, Endianness : Big
Muxing mode : Header stripping
Codec ID : A_AC3
Duration : 51mn 0s
Bit rate mode : Constant
Bit rate : 224 Kbps
Channel(s) : 2 channels
Channel positions : Front: L R
Sampling rate : 48.0 KHz
Bit depth : 16 bits
Compression mode : Lossy
Stream size : 81.7 MiB (1%)
Title : AC3, 2ch 224 kbps (, Persona99)
Language : Russian
Default : No
Forced : No

Audio #4
ID : 5
Format : DTS
Format/Info : Digital Theater Systems
Format profile : MA / Core
Muxing mode : Header stripping
Codec ID : A_DTS
Duration : 51mn 0s
Bit rate mode : Variable
Bit rate : 803 Kbps / 755 Kbps
Channel(s) : 2 channels
Channel positions : Front: L R
Sampling rate : 48.0 KHz
Bit depth : 16 bits
Compression mode : Lossless / Lossy
Title : DTS-HD MA, 2ch 1042 kbps
Language : Japanese
Default : No
Forced : No

Text #1
ID : 6
Format : ASS
Codec ID : S_TEXT/ASS
Codec ID/Info : Advanced Sub Station Alpha
Compression mode : Lossless
Language : Russian
Default : No
Forced : No

Text #2
ID : 7
Format : ASS
Codec ID : S_TEXT/ASS
Codec ID/Info : Advanced Sub Station Alpha
Compression mode : Lossless
Language : English
Default : No
Forced : No

Menu
00:00:00.000 : en:00:00:00.000
00:01:47.149 : en:00:01:47.149
00:03:37.717 : en:00:03:37.717
00:05:42.050 : en:00:05:42.050
00:07:06.009 : en:00:07:06.009
00:08:24.254 : en:00:08:24.254
00:12:37.548 : en:00:12:37.548
00:14:41.422 : en:00:14:41.422
00:16:17.435 : en:00:16:17.435
00:17:01.646 : en:00:17:01.646
00:18:05.835 : en:00:18:05.835
00:19:46.394 : en:00:19:46.394
00:22:28.889 : en:00:22:28.889
00:23:35.289 : en:00:23:35.289
00:24:39.019 : en:00:24:39.019
00:26:29.713 : en:00:26:29.713
00:29:16.380 : en:00:29:16.380
00:34:42.080 : en:00:34:42.080
00:36:23.306 : en:00:36:23.306
00:38:38.149 : en:00:38:38.149
00:42:14.157 : en:00:42:14.157
00:44:29.876 : en:00:44:29.876
00:47:07.908 : en:00:47:07.908
00:48:43.712 : en:00:48:43.712
Disc Title: (One Piece Movie 2000)[BDMV]
Disc Size: 15359033594 bytes
Protection: AACS
BD-Java: No
BDInfo: 0.5.6

Notes:

BDINFO HOME:
Cinema Squid
http://www.cinemasquid.com/blu-ray/tools/bdinfo

INCLUDES FORUMS REPORT FOR:
AVS Forum Blu-ray Audio and Video Specifications Thread
http://www.avsforum.com/avs-vb/showthread.php?t=1155731

********************
PLAYLIST: 00001.MPLS
********************

<--- BEGIN FORUMS PASTE --->
Total Video
Title Codec Length Movie Size Disc Size Bitrate Bitrate Main Audio Track Secondary Audio Track
----- ------ ------- -------------- -------------- ------- ------- ------------------ ---------------------
00001.MPLS AVC 0:51:00 15009988608 15359033594 39,23 35,00 Dolby TrueHD 2.0 743Kbps (48kHz/16-bit)
Disc Title: (One Piece Movie 2000)[BDMV]
Disc Size: 15359033594 bytes
Protection: AACS
BD-Java: No
BDInfo: 0.5.6

PLAYLIST REPORT:

Name: 00001.MPLS
Length: 0:51:00 (h:m:s)
Size: 15009988608 bytes
Total Bitrate: 39,23 Mbps

VIDEO:

Codec Bitrate Description
----- ------- -----------
MPEG-4 AVC Video 35000 kbps 1080p / 23,976 fps / 16:9 / High Profile 4.1

AUDIO:

Codec Language Bitrate Description
----- -------- ------- -----------
Dolby TrueHD Audio Japanese 743 kbps 2.0 / 48 kHz / 743 kbps / 16-bit (AC3 Embedded: 2.0 / 48 kHz / 640 kbps / DN -4dB / Dolby Surround)

SUBTITLES:

Codec Language Bitrate Description
----- -------- ------- -----------
Presentation Graphics Japanese 63,838 kbps

FILES:

Name Time In Length Size Total Bitrate
---- ------- ------ ---- -------------
00001.M2TS 0:00:00.000 0:51:00.599 15009988608 39234

CHAPTERS:

Number Time In Length Avg Video Rate Max 1-Sec Rate Max 1-Sec Time Max 5-Sec Rate Max 5-Sec Time Max 10Sec Rate Max 10Sec Time Avg Frame Size Max Frame Size Max Frame Time
------ ------- ------ -------------- -------------- -------------- -------------- -------------- -------------- -------------- -------------- -------------- --------------
1 0:00:00.000 0:01:47.148 32546 kbps 39816 kbps 00:00:51.217 36076 kbps 00:00:18.768 35116 kbps 00:00:13.179 169611 bytes 561110 bytes 00:01:45.980
2 0:01:47.148 0:01:50.568 34822 kbps 38267 kbps 00:03:09.981 36170 kbps 00:02:05.250 35967 kbps 00:01:59.994 181548 bytes 400593 bytes 00:02:29.941
3 0:03:37.717 0:02:04.332 35415 kbps 37206 kbps 00:05:30.663 36087 kbps 00:05:32.165 35943 kbps 00:05:27.285 184639 bytes 352999 bytes 00:05:25.450
4 0:05:42.050 0:01:23.958 35438 kbps 37818 kbps 00:06:55.748 36085 kbps 00:06:35.561 35869 kbps 00:06:22.298 184757 bytes 412491 bytes 00:06:57.625
5 0:07:06.008 0:01:18.244 34497 kbps 37062 kbps 00:07:18.896 36088 kbps 00:07:16.894 35830 kbps 00:07:08.428 179850 bytes 375576 bytes 00:07:15.059
6 0:08:24.253 0:04:13.294 34459 kbps 37264 kbps 00:09:21.519 36064 kbps 00:12:00.219 35929 kbps 00:12:02.722 179655 bytes 362691 bytes 00:12:15.109
7 0:12:37.548 0:02:03.873 35245 kbps 37693 kbps 00:14:05.302 36044 kbps 00:14:17.064 35916 kbps 00:13:38.484 183753 bytes 377932 bytes 00:14:16.355
8 0:14:41.422 0:01:36.012 35202 kbps 37857 kbps 00:15:45.152 36225 kbps 00:15:41.148 35923 kbps 00:14:58.939 183526 bytes 456634 bytes 00:15:18.167
9 0:16:17.434 0:00:44.210 35794 kbps 37722 kbps 00:16:47.172 36197 kbps 00:16:43.168 35964 kbps 00:16:45.421 186614 bytes 366683 bytes 00:16:48.048
10 0:17:01.645 0:01:04.189 35801 kbps 37640 kbps 00:17:19.163 36090 kbps 00:17:43.270 35949 kbps 00:17:38.265 186651 bytes 386363 bytes 00:17:02.438
11 0:18:05.834 0:01:40.558 35763 kbps 37556 kbps 00:19:12.693 36188 kbps 00:18:29.274 36027 kbps 00:19:03.600 186451 bytes 447091 bytes 00:18:34.071
12 0:19:46.393 0:02:42.495 35764 kbps 37559 kbps 00:22:17.419 36246 kbps 00:21:57.315 35994 kbps 00:21:36.878 186458 bytes 418629 bytes 00:21:52.853
13 0:22:28.889 0:01:06.399 35616 kbps 39469 kbps 00:22:40.233 36521 kbps 00:22:36.188 35997 kbps 00:22:53.205 185683 bytes 384273 bytes 00:22:31.641
14 0:23:35.288 0:01:03.730 35669 kbps 37775 kbps 00:23:43.672 36098 kbps 00:23:51.555 35957 kbps 00:24:18.415 185962 bytes 365455 bytes 00:23:50.262
15 0:24:39.019 0:01:50.693 35716 kbps 39686 kbps 00:25:22.896 36481 kbps 00:25:18.808 36221 kbps 00:25:13.762 186207 bytes 407271 bytes 00:24:41.521
16 0:26:29.713 0:02:46.666 35776 kbps 37498 kbps 00:26:44.853 36240 kbps 00:28:44.305 36018 kbps 00:26:35.844 186522 bytes 433070 bytes 00:26:46.730
17 0:29:16.379 0:05:25.700 35138 kbps 37588 kbps 00:31:09.867 36109 kbps 00:29:37.108 35943 kbps 00:30:08.890 183191 bytes 372686 bytes 00:34:30.818
18 0:34:42.080 0:01:41.226 35466 kbps 37577 kbps 00:36:19.760 36165 kbps 00:34:53.049 35969 kbps 00:34:45.958 184905 bytes 377883 bytes 00:34:46.084
19 0:36:23.306 0:02:14.843 35040 kbps 37965 kbps 00:38:14.959 36092 kbps 00:36:35.109 35894 kbps 00:36:33.941 182683 bytes 364942 bytes 00:36:34.442
20 0:38:38.149 0:03:36.007 35203 kbps 40196 kbps 00:41:58.182 36775 kbps 00:41:54.094 36048 kbps 00:40:01.524 183530 bytes 446420 bytes 00:41:58.974
21 0:42:14.156 0:02:15.718 34503 kbps 40532 kbps 00:43:27.187 36608 kbps 00:43:23.183 36093 kbps 00:43:18.137 179885 bytes 387858 bytes 00:43:27.896
22 0:44:29.875 0:02:38.032 33181 kbps 37985 kbps 00:45:07.871 36005 kbps 00:46:00.841 35202 kbps 00:45:59.423 172991 bytes 385727 bytes 00:46:02.968
23 0:47:07.908 0:01:35.804 35731 kbps 37583 kbps 00:47:30.222 36098 kbps 00:48:15.601 35946 kbps 00:48:05.674 186283 bytes 373223 bytes 00:47:37.437
24 0:48:43.712 0:02:16.886 34159 kbps 37656 kbps 00:49:46.858 36173 kbps 00:49:34.304 35879 kbps 00:48:52.846 178146 bytes 468654 bytes 00:49:48.485

STREAM DIAGNOSTICS:

File PID Type Codec Language Seconds Bitrate Bytes Packets
---- --- ---- ----- -------- -------------- -------------- ------------- -----
00001.M2TS 4113 (0x1011) 0x1B AVC 3060,432 35002 13390126728 72815155
00001.M2TS 4352 (0x1100) 0x83 TrueHD jpn (Japanese) 3060,432 1383 529073944 5117426
00001.M2TS 4608 (0x1200) 0x90 PGS jpn (Japanese) 3060,432 64 24422922 141864
<---- END FORUMS PASTE ---->

QUICK SUMMARY:

Disc Title: (One Piece Movie 2000)[BDMV]
Disc Size: 15359033594 bytes
Protection: AACS
BD-Java: No
Playlist: 00001.MPLS
Size: 15009988608 bytes
Length: 0:51:00
Total Bitrate: 39,23 Mbps
Video: MPEG-4 AVC Video / 35000 kbps / 1080p / 23,976 fps / 16:9 / High Profile 4.1
Audio: Japanese / Dolby TrueHD Audio / 2.0 / 48 kHz / 743 kbps / 16-bit (AC3 Embedded: 2.0 / 48 kHz / 640 kbps / DN -4dB / Dolby Surround)
Subtitle: Japanese / 63,838 kbps

********************
PLAYLIST: 00003.MPLS
********************

<--- BEGIN FORUMS PASTE --->
Total Video
Title Codec Length Movie Size Disc Size Bitrate Bitrate Main Audio Track Secondary Audio Track
----- ------ ------- -------------- -------------- ------- ------- ------------------ ---------------------
00003.MPLS AVC 0:00:46 221423616 15359033594 37,79 34,37 LPCM 2.0 1536Kbps (48kHz/16-bit)
DISC INFO:

Disc Title: (One Piece Movie 2000)[BDMV]
Disc Size: 15359033594 bytes
Protection: AACS
BD-Java: No
BDInfo: 0.5.6

PLAYLIST REPORT:

Name: 00003.MPLS
Length: 0:00:46 (h:m:s)
Size: 221423616 bytes
Total Bitrate: 37,79 Mbps

VIDEO:

Codec Bitrate Description
----- ------- -----------
MPEG-4 AVC Video 34375 kbps 1080p / 23,976 fps / 16:9 / High Profile 4.1

AUDIO:

Codec Language Bitrate Description
----- -------- ------- -----------
LPCM Audio Japanese 1536 kbps 2.0 / 48 kHz / 1536 kbps / 16-bit

FILES:

Name Time In Length Size Total Bitrate
---- ------- ------ ---- -------------
00003.M2TS 0:00:00.000 0:00:46.880 221423616 37785

CHAPTERS:

Number Time In Length Avg Video Rate Max 1-Sec Rate Max 1-Sec Time Max 5-Sec Rate Max 5-Sec Time Max 10Sec Rate Max 10Sec Time Avg Frame Size Max Frame Size Max Frame Time
------ ------- ------ -------------- -------------- -------------- -------------- -------------- -------------- -------------- -------------- -------------- --------------
1 0:00:00.000 0:00:46.880 34375 kbps 41038 kbps 00:00:00.375 36035 kbps 00:00:40.665 35695 kbps 00:00:20.603 179215 bytes 428109 bytes 00:00:16.641

STREAM DIAGNOSTICS:

File PID Type Codec Language Seconds Bitrate Bytes Packets
---- --- ---- ----- -------- -------------- -------------- ------------- -----
00003.M2TS 4113 (0x1011) 0x1B AVC 46,713 34498 201437614 1095415
00003.M2TS 4352 (0x1100) 0x80 LPCM jpn (Japanese) 46,713 1548 9038464 56256
<---- END FORUMS PASTE ---->

QUICK SUMMARY:

Disc Title: (One Piece Movie 2000)[BDMV]
Disc Size: 15359033594 bytes
Protection: AACS
BD-Java: No
Playlist: 00003.MPLS
Size: 221423616 bytes
Length: 0:00:46
Total Bitrate: 37,79 Mbps
Video: MPEG-4 AVC Video / 34375 kbps / 1080p / 23,976 fps / 16:9 / High Profile 4.1
Audio: Japanese / LPCM Audio / 2.0 / 48 kHz / 1536 kbps / 16-bit

********************
PLAYLIST: 00000.MPLS
********************

<--- BEGIN FORUMS PASTE --->
Total Video
Title Codec Length Movie Size Disc Size Bitrate Bitrate Main Audio Track Secondary Audio Track
----- ------ ------- -------------- -------------- ------- ------- ------------------ ---------------------
00000.MPLS AVC 0:00:27 54540288 15359033594 16,14 12,11 Dolby TrueHD 5.1 1575Kbps (48kHz/16-bit)
DISC INFO:

Disc Title: (One Piece Movie 2000)[BDMV]
Disc Size: 15359033594 bytes
Protection: AACS
BD-Java: No
BDInfo: 0.5.6

PLAYLIST REPORT:

Name: 00000.MPLS
Length: 0:00:27 (h:m:s)
Size: 54540288 bytes
Total Bitrate: 16,14 Mbps

VIDEO:

Codec Bitrate Description
----- ------- -----------
MPEG-4 AVC Video 12108 kbps 1080p / 23,976 fps / 16:9 / High Profile 4.1

AUDIO:

Codec Language Bitrate Description
----- -------- ------- -----------
Dolby TrueHD Audio Japanese 1575 kbps 5.1 / 48 kHz / 1575 kbps / 16-bit (AC3 Embedded: 5.1 / 48 kHz / 640 kbps / DN -12dB)

FILES:

Name Time In Length Size Total Bitrate
---- ------- ------ ---- -------------
00000.M2TS 0:00:00.000 0:00:27.027 54540288 16144

CHAPTERS:

Number Time In Length Avg Video Rate Max 1-Sec Rate Max 1-Sec Time Max 5-Sec Rate Max 5-Sec Time Max 10Sec Rate Max 10Sec Time Avg Frame Size Max Frame Size Max Frame Time
------ ------- ------ -------------- -------------- -------------- -------------- -------------- -------------- -------------- -------------- -------------- --------------
1 0:00:00.000 0:00:27.027 12108 kbps 55091 kbps 00:00:15.682 37082 kbps 00:00:15.682 28201 kbps 00:00:13.263 63224 bytes 410907 bytes 00:00:19.853

STREAM DIAGNOSTICS:

File PID Type Codec Language Seconds Bitrate Bytes Packets
---- --- ---- ----- -------- -------------- -------------- ------------- -----
00000.M2TS 4113 (0x1011) 0x1B AVC 26,944 12146 40905898 222616
00000.M2TS 4352 (0x1100) 0x83 TrueHD jpn (Japanese) 26,944 2222 7482210 60500
<---- END FORUMS PASTE ---->

QUICK SUMMARY:

Disc Title: (One Piece Movie 2000)[BDMV]
Disc Size: 15359033594 bytes
Protection: AACS
BD-Java: No
Playlist: 00000.MPLS
Size: 54540288 bytes
Length: 0:00:27
Total Bitrate: 16,14 Mbps
Video: MPEG-4 AVC Video / 12108 kbps / 1080p / 23,976 fps / 16:9 / High Profile 4.1
Audio: Japanese / Dolby TrueHD Audio / 5.1 / 48 kHz / 1575 kbps / 16-bit (AC3 Embedded: 5.1 / 48 kHz / 640 kbps / DN -12dB)


 ·  , , FAQ-
:  [ 29--2013 10:41 ]

  

.torrent

.torrent 34 KB


: 13.6 GB
(hash) : a9718588949c7aa748abd8f91602e3ba547c9ce4
:
··
...

, -: One Piece: The Great Gold Pirate

S L
- | One Piece ·· -: / One Piece: The Great Gold Pirate / One Piece Movie 1 [Movie] [ ] [RUS(int)] [2000 ., , , , , DVDRip] L 12203718121.14 GB 0 0 1364547097

11:51

29--13

- | One Piece ·· -: / One Piece: The Great Gold Pirate [Movie] [RUS(ext), JAP+SUB] [2000 ., , , , BDRip] [720p][] L 38289967803.57 GB 0 0 1318222218

07:50

10--11

-: One Piece: The Great Gold Pirate . !

!