Скачать через торрент музыку Дом Франкенштейна House of Frankenstein бесплатно без регистрации torrent

Если у вас наблюдаются проблемы со скриншотами, переходом по ссылками, скачиванием торрентов - проблемы в блокировщике рекламы AdBlock. #хорошегоДня!


Статистика раздачи
Размер:  255 MB   |    Зарегистрирован:  4 года 3 месяца   |    .torrent скачан:  19 раз   |   
Раздают:  1  
   
Загрузка...
 
Автор Сообщение

Galfimbul

avatar Galfimbul


Hans J. Salter
Paul Dessau


House of Frankenstein

(complete film score, 1944)




Жанр: Soundtrack
Композитор: Paul Dessau, Hans J. Salter
Год выпуска диска: 1995
Год выпуска фильма: 1944
Страна-производитель диска: Germany
Издатель (лейбл): Marco Polo (NAXOS)
Аудиокодек: FLAC (*.flac)
Тип рипа: image+.cue
Битрейт аудио: lossless
Продолжительность: 55''26''''
Источник: собственный рип
Наличие сканов в содержимом раздачи: да
Треклист:

[1] Universal Signature
[2] Main Title
[3] Lightning Strikes
[4] Gruesome Twosome Escape
[5] Strangulation
[6] Off to Vasaria
[7] Chamber of Horrors
[8] Dracula Restored
[9] Dracula''s Ring
[10] The Burgomaster Murdered
[11] Rendezvous with Dracula
[12] The World Beyond
[13] Dracula Pursued
[14] Dracula Destroyed
[15] Gypsy Tantrums
[16] Ilonka Whipped
[17] Dan''s Love
[18] The Ruins
[19] The Monstrosities
[20] Wolf Man Revived
[21] Show Me the Records
[22] Travels
[23] Hunchback''s Jealosy
[24] Niemann''s Laboratory
[25] Liquefying Brains
[26] Niemann''s Revenge
[27] The Pentagram
[28] Full Moon
[29] Silver Bullet
[30] Dr. Niemann Successful
[31] The Moon is Full
[32] Larry at Peace
[33] Dr. Niemann Attacked
[34] Death of the Unholy Two
[35] End Cast

Исполнители:

Moscow Symphony Orchestra - William T. Stromberg
Exact Audio Copy V1.0 beta 3 from 29. August 2011

EAC extraction logfile from 26. December 2012, 22:16

Moscow Symphony Orchestra - William T. Stromberg / Hans J Salter and Paul Dessau - House of Frankenstein (Complete Film Score 1944)

Used drive : TSSTcorpCDDVDW SN-208BB Adapter: 0 ID: 1

Read mode : SecureUtilize accurate stream : YesDefeat audio cache : YesMake use of C2 pointers : No

Read offset correction : 6Overread into Lead-In and Lead-Out : NoFill up missing offset samples with silence : YesDelete leading and trailing silent blocks : NoNull samples used in CRC calculations : YesUsed interface : Native Win32 interface for Win NT & 2000

Used output format : User Defined EncoderSelected bitrate : 1024 kBit/sQuality : HighAdd ID3 tag : NoCommand line compressor : C:\Program Files (x86)\FLAC\flac.exeAdditional command line options : -T "COMMENT=rip by el coronel, rutracker.org" -8 -V %source%

TOC of the extracted CD

Track | Start | Length | Start sector | End sector --------------------------------------------------------- 1 | 0:00.00 | 0:16.52 | 0 | 1251 2 | 0:16.52 | 2:16.65 | 1252 | 11516 3 | 2:33.42 | 1:47.48 | 11517 | 19589 4 | 4:21.15 | 1:50.12 | 19590 | 27851 5 | 6:11.27 | 0:30.03 | 27852 | 30104 6 | 6:41.30 | 1:17.50 | 30105 | 35929 7 | 7:59.05 | 0:40.10 | 35930 | 38939 8 | 8:39.15 | 1:29.27 | 38940 | 45641 9 | 10:08.42 | 1:28.45 | 45642 | 52286 10 | 11:37.12 | 2:05.43 | 52287 | 61704 11 | 13:42.55 | 2:34.25 | 61705 | 73279 12 | 16:17.05 | 1:29.20 | 73280 | 79974 13 | 17:46.25 | 1:43.67 | 79975 | 87766 14 | 19:30.17 | 1:08.18 | 87767 | 92884 15 | 20:38.35 | 1:47.12 | 92885 | 100921 16 | 22:25.47 | 1:07.23 | 100922 | 105969 17 | 23:32.70 | 3:22.70 | 105970 | 121189 18 | 26:55.65 | 1:37.27 | 121190 | 128491 19 | 28:33.17 | 2:01.73 | 128492 | 137639 20 | 30:35.15 | 2:12.70 | 137640 | 147609 21 | 32:48.10 | 2:21.67 | 147610 | 158251 22 | 35:10.02 | 0:34.55 | 158252 | 160856 23 | 35:44.57 | 1:51.05 | 160857 | 169186 24 | 37:35.62 | 1:30.30 | 169187 | 175966 25 | 39:06.17 | 1:11.40 | 175967 | 181331 26 | 40:17.57 | 1:06.60 | 181332 | 186341 27 | 41:24.42 | 1:37.18 | 186342 | 193634 28 | 43:01.60 | 1:15.40 | 193635 | 199299 29 | 44:17.25 | 3:32.55 | 199300 | 215254 30 | 47:50.05 | 1:23.35 | 215255 | 221514 31 | 49:13.40 | 1:17.72 | 221515 | 227361 32 | 50:31.37 | 1:36.28 | 227362 | 234589 33 | 52:07.65 | 1:36.32 | 234590 | 241821 34 | 53:44.22 | 1:13.60 | 241822 | 247356 35 | 54:58.07 | 0:28.23 | 247357 | 249479

Range status and errors

Selected range

Filename J:\Music\Dessau, Salter - House of Frankenstein (Soundtrack)\Salter, Dessau - House of Frankenstein (Complete Film Score 1944).wav

Peak level 100.0 % Extraction speed 2.9 X Range quality 100.0 % Test CRC 03E5811F Copy CRC 03E5811F Copy OK

No errors occurred

AccurateRip summary

Track 1 accurately ripped (confidence 2) [77A299BE] (AR v1)Track 2 accurately ripped (confidence 2) [1C851E22] (AR v1)Track 3 accurately ripped (confidence 2) [BBF77CC8] (AR v1)Track 4 accurately ripped (confidence 2) [BD3440AD] (AR v1)Track 5 accurately ripped (confidence 2) [233992A4] (AR v1)Track 6 accurately ripped (confidence 2) [858B5039] (AR v1)Track 7 accurately ripped (confidence 2) [16C91FD9] (AR v1)Track 8 accurately ripped (confidence 2) [2C00581F] (AR v1)Track 9 accurately ripped (confidence 2) [BB2E0E9B] (AR v1)Track 10 accurately ripped (confidence 2) [DC5535F8] (AR v1)Track 11 accurately ripped (confidence 2) [25AED479] (AR v1)Track 12 accurately ripped (confidence 2) [F52355B8] (AR v1)Track 13 accurately ripped (confidence 2) [30C7B630] (AR v1)Track 14 accurately ripped (confidence 2) [66793557] (AR v1)Track 15 accurately ripped (confidence 2) [5E7E2EAB] (AR v1)Track 16 accurately ripped (confidence 2) [192EDDF8] (AR v1)Track 17 accurately ripped (confidence 2) [81EA7F60] (AR v1)Track 18 accurately ripped (confidence 2) [F3C91AB9] (AR v1)Track 19 accurately ripped (confidence 2) [48864A0F] (AR v1)Track 20 accurately ripped (confidence 2) [DC2C1F11] (AR v1)Track 21 accurately ripped (confidence 2) [C386B0B8] (AR v1)Track 22 accurately ripped (confidence 2) [5A8F0733] (AR v1)Track 23 accurately ripped (confidence 2) [7480DC35] (AR v1)Track 24 accurately ripped (confidence 2) [41A9128B] (AR v1)Track 25 accurately ripped (confidence 2) [7BBE9E9D] (AR v1)Track 26 accurately ripped (confidence 2) [DF871CC1] (AR v1)Track 27 accurately ripped (confidence 2) [30392111] (AR v1)Track 28 accurately ripped (confidence 2) [90044979] (AR v1)Track 29 accurately ripped (confidence 2) [16A60A01] (AR v1)Track 30 accurately ripped (confidence 2) [13F606C7] (AR v1)Track 31 accurately ripped (confidence 2) [F5363EBD] (AR v1)Track 32 accurately ripped (confidence 2) [EE4EDDF4] (AR v1)Track 33 accurately ripped (confidence 2) [A821F8CD] (AR v1)Track 34 accurately ripped (confidence 2) [976616BC] (AR v1)Track 35 accurately ripped (confidence 2) [7A8C9FE2] (AR v1)

All tracks accurately ripped

End of status report

==== Log checksum 13DB1F4C5B028D66F2A02A4C124861CBFC4AF83076821CB8554BD1F79728DB32 ====
REM GENRE SoundtrackREM DATE 1995REM DISCID DF0CFE23REM COMMENT "ExactAudioCopy v1.0b3"PERFORMER "Moscow Symphony Orchestra - William T. Stromberg"TITLE "Hans J Salter and Paul Dessau - House of Frankenstein (Complete Film Score 1944)"FILE "Salter, Dessau - House of Frankenstein (Complete Film Score 1944).flac" WAVE TRACK 01 AUDIO TITLE "Universal Signature" PERFORMER "Moscow Symphony Orchestra - William T. Stromberg" INDEX 01 00:00:00 TRACK 02 AUDIO TITLE "Main Title" PERFORMER "Moscow Symphony Orchestra - William T. Stromberg" INDEX 01 00:16:52 TRACK 03 AUDIO TITLE "Lightning Strikes" PERFORMER "Moscow Symphony Orchestra - William T. Stromberg" INDEX 01 02:33:42 TRACK 04 AUDIO TITLE "Gruesome Twosome Escape" PERFORMER "Moscow Symphony Orchestra - William T. Stromberg" INDEX 01 04:21:15 TRACK 05 AUDIO TITLE "Strangulation" PERFORMER "Moscow Symphony Orchestra - William T. Stromberg" INDEX 01 06:11:27 TRACK 06 AUDIO TITLE "Off to Vasaria" PERFORMER "Moscow Symphony Orchestra - William T. Stromberg" INDEX 01 06:41:30 TRACK 07 AUDIO TITLE "Chamber of Horrors" PERFORMER "Moscow Symphony Orchestra - William T. Stromberg" INDEX 01 07:59:05 TRACK 08 AUDIO TITLE "Dracula Restored" PERFORMER "Moscow Symphony Orchestra - William T. Stromberg" INDEX 01 08:39:15 TRACK 09 AUDIO TITLE "Dracula''s Ring" PERFORMER "Moscow Symphony Orchestra - William T. Stromberg" INDEX 01 10:08:42 TRACK 10 AUDIO TITLE "The Burgomaster Murdered" PERFORMER "Moscow Symphony Orchestra - William T. Stromberg" INDEX 01 11:37:12 TRACK 11 AUDIO TITLE "Rendezvous with Dracula" PERFORMER "Moscow Symphony Orchestra - William T. Stromberg" INDEX 01 13:42:55 TRACK 12 AUDIO TITLE "The World Beyond" PERFORMER "Moscow Symphony Orchestra - William T. Stromberg" INDEX 01 16:17:05 TRACK 13 AUDIO TITLE "Dracula Pursued" PERFORMER "Moscow Symphony Orchestra - William T. Stromberg" INDEX 01 17:46:25 TRACK 14 AUDIO TITLE "Dracula Destroyed" PERFORMER "Moscow Symphony Orchestra - William T. Stromberg" INDEX 01 19:30:17 TRACK 15 AUDIO TITLE "Gypsy Tantrums" PERFORMER "Moscow Symphony Orchestra - William T. Stromberg" INDEX 01 20:38:35 TRACK 16 AUDIO TITLE "Ilonka Whipped" PERFORMER "Moscow Symphony Orchestra - William T. Stromberg" INDEX 01 22:25:47 TRACK 17 AUDIO TITLE "Dan''s Love" PERFORMER "Moscow Symphony Orchestra - William T. Stromberg" INDEX 01 23:32:70 TRACK 18 AUDIO TITLE "The Ruins" PERFORMER "Moscow Symphony Orchestra - William T. Stromberg" INDEX 01 26:55:65 TRACK 19 AUDIO TITLE "The Monstrosities" PERFORMER "Moscow Symphony Orchestra - William T. Stromberg" INDEX 01 28:33:17 TRACK 20 AUDIO TITLE "Wolf Man Revived" PERFORMER "Moscow Symphony Orchestra - William T. Stromberg" INDEX 01 30:35:15 TRACK 21 AUDIO TITLE "Show Me the Records" PERFORMER "Moscow Symphony Orchestra - William T. Stromberg" INDEX 01 32:48:10 TRACK 22 AUDIO TITLE "Travels" PERFORMER "Moscow Symphony Orchestra - William T. Stromberg" INDEX 01 35:10:02 TRACK 23 AUDIO TITLE "Hunchback''s Jealosy" PERFORMER "Moscow Symphony Orchestra - William T. Stromberg" INDEX 01 35:44:57 TRACK 24 AUDIO TITLE "Niemann''s Laboratory" PERFORMER "Moscow Symphony Orchestra - William T. Stromberg" INDEX 01 37:35:62 TRACK 25 AUDIO TITLE "Liquefying Brains" PERFORMER "Moscow Symphony Orchestra - William T. Stromberg" INDEX 01 39:06:17 TRACK 26 AUDIO TITLE "Niemann''s Revenge" PERFORMER "Moscow Symphony Orchestra - William T. Stromberg" INDEX 01 40:17:57 TRACK 27 AUDIO TITLE "The Pentagram" PERFORMER "Moscow Symphony Orchestra - William T. Stromberg" INDEX 01 41:24:42 TRACK 28 AUDIO TITLE "Full Moon" PERFORMER "Moscow Symphony Orchestra - William T. Stromberg" INDEX 01 43:01:60 TRACK 29 AUDIO TITLE "Silver Bullet" PERFORMER "Moscow Symphony Orchestra - William T. Stromberg" INDEX 01 44:17:25 TRACK 30 AUDIO TITLE "Dr. Niemann Successful" PERFORMER "Moscow Symphony Orchestra - William T. Stromberg" INDEX 01 47:50:05 TRACK 31 AUDIO TITLE "The Moon is Full" PERFORMER "Moscow Symphony Orchestra - William T. Stromberg" INDEX 01 49:13:40 TRACK 32 AUDIO TITLE "Larry at Peace" PERFORMER "Moscow Symphony Orchestra - William T. Stromberg" INDEX 01 50:31:37 TRACK 33 AUDIO TITLE "Dr. Niemann Attacked" PERFORMER "Moscow Symphony Orchestra - William T. Stromberg" INDEX 01 52:07:65 TRACK 34 AUDIO TITLE "Death of the Unholy Two" PERFORMER "Moscow Symphony Orchestra - William T. Stromberg" INDEX 01 53:44:22 TRACK 35 AUDIO TITLE "End Cast" PERFORMER "Moscow Symphony Orchestra - William T. Stromberg" INDEX 01 54:58:07


Трекер:  [ 12-Июн-2013 16:30 ]

  

Скачать .torrent

Размер .torrent файла 20 KB


Размер: 255 MB
Хэш (hash) релиза: 9ddefabba684d68ea0952699e44377204ac74615

bot

Топик был перенесен в форум Саундтреки к фильмам и мультфильмам (lossless)

Перенес Galfimbul

Хотите добавить комментарий к записи скачать торрент Дом Франкенштейна House of Frankenstein

!Обратная связь