Скачать через торрент Призрак в доспехах 2: Невинность Ghost in the Shell 2:Innocence бесплатно Аниме Все серии на русском torrent

Если у вас наблюдаются проблемы со скриншотами, переходом по ссылками, скачиванием торрентов - проблемы в блокировщике рекламы AdBlock. #хорошегоДня!


Статистика раздачи
Размер:  4.69 GB   |    Зарегистрирован:  4 года 5 месяцев   |    .torrent скачан:  66 раз   |   
Раздают:  2  
   
Загрузка...
 
Автор Сообщение

L


Призрак в доспехах 2: Невинность / Ghost in the Shell 2:Innocence

Год выпуска: 2004
Страна: Япония
Жанр: киберпанк, фантастика
Продолжительность: 01:39:05
Перевод: 1. Профессиональный (многоголосый) - MC-Entertainment 2. Любительский (двухголосый) - П.Гланц и И.Королёва
Русские субтитры: Есть. (Субтитры взяты с Кейджа, автор Zorych)

Режиссер: Осии Мамору

Описание: Близкое будущее, 2032 год. Техника достигла невиданного прогресса. Это мир, который люди разделяют с киборгами и роботами. Бато — детектив отдела полиции по борьбе с терроризмом. Он — живой киборг, оснащённый искусственными руками, ногами и прочими частями тела. Остался лишь его прежний мозг да память о ней, о Мотоко Кусанаги. Вместе с напарником Тогусой Бато привлечён к расследованию серии убийств роботами своих владельцев, причём все роботы относятся к эспериментальной модели секс-андроидов фирмы Locus Solus. Компания предпочла бы замять дело, отозвав роботов с рынка и договорившись с родственниками погибших. Но Бато и Тогуса — не из тех, с кем можно заключить полюбовную сделку.
world-art.ru

СЕМПЛ

Качество: BDRip
Формат: MKV
Видео кодек: H.264
Аудио кодек: AC3
Видео: 1280x688, 23.976 fps, x264, 4500 kbps
Аудио: 1. MC-Entertainment: 48 kHz, AC3 Dolby Digital, 3/2 (L,C,R,l,r) + LFE ch, ~384.00 kbps avg 2. П.Гланц и И.Королёва: 48 kHz, AC3 Dolby Digital, 3/2 (L,C,R,l,r) + LFE ch, ~384.00 kbps avg 3. Japanese DTS, 1536 Kbps, 6 channels (Front: L C R, Surround: L R, Subwoofer), 48 KHz
D:\Аниме\Ghost in the Shell\Ghost in the Shell - Innocence\Ghost.in.the.Shell.2.Innocence.2004.HDTV.x264.1280x688.RUS.JPN.mkv
General
Complete name : D:\Аниме\Ghost in the Shell\Ghost in the Shell - Innocence\Ghost.in.the.Shell.2.Innocence.2004.HDTV.x264.1280x688.RUS.JPN.mkv
Format : Matroska
File size : 4.69 GiB
Duration : 1h 39mn
Overall bit rate : 6 781 Kbps
Movie name : Ghost in the Shell 2: Innocence (2004)
Encoded date : UTC 2010-02-18 16:17:24
Writing application : mkvmerge v2.9.5 (''Tu es le seul'') built on Jun 7 2009 11:07:07
Writing library : libebml v0.7.7 + libmatroska v0.8.1
Cover : Yes / Yes / Yes / Yes / Yes / Yes / Yes / Yes
Video #1
ID : 1
Format : AVC
Format/Info : Advanced Video Codec
Format profile : High@L5.1
Format settings, CABAC : Yes
Format settings, ReFrames : 13 frames
Muxing mode : Container profile=Unknown@5.1
Codec ID : V_MPEG4/ISO/AVC
Duration : 1h 39mn
Bit rate : 4 500 Kbps
Width : 1 280 pixels
Height : 688 pixels
Display aspect ratio : 1.860
Frame rate : 23.976 fps
Color space : YUV
Chroma subsampling : 4:2:0
Bit depth : 8 bits
Scan type : Progressive
Bits/(Pixel*Frame) : 0.213
Stream size : 3.02 GiB (64%)
Writing library : x264 core 54 svn-635M
Encoding settings : cabac=1 / ref=10 / deblock=1:-1:-1 / analyse=0x3:0x133 / me=hex / subme=7 / brdo=1 / mixed_ref=1 / me_range=16 / chroma_me=1 / trellis=1 / 8x8dct=1 / cqm=2 / deadzone=21,11 / chroma_qp_offset=0 / threads=3 / nr=0 / decimate=1 / mbaff=0 / bframes=6 / b_pyramid=1 / b_adapt=1 / b_bias=0 / direct=1 / wpredb=1 / bime=1 / keyint=250 / keyint_min=25 / scenecut=40(pre) / rc=2pass / bitrate=4500 / ratetol=1.0 / rceq=''blurCplx^(1-qComp)'' / qcomp=0.60 / qpmin=10 / qpmax=51 / qpstep=4 / cplxblur=20.0 / qblur=0.5 / ip_ratio=1.40 / pb_ratio=1.30 / aq=1:0.7:18.0
Audio #2
ID : 2
Format : AC-3
Format/Info : Audio Coding 3
Mode extension : CM (complete main)
Codec ID : A_AC3
Duration : 1h 39mn
Bit rate mode : Constant
Bit rate : 384 Kbps
Channel(s) : 6 channels
Channel positions : Front: L C R, Side: L R, LFE
Sampling rate : 48.0 KHz
Bit depth : 16 bits
Stream size : 272 MiB (6%)
Title : MC-Entertainment, AC3 Dolby Digital, 6 channels, ~384.00 kbps
Language : Russian
Audio #3
ID : 3
Format : AC-3
Format/Info : Audio Coding 3
Mode extension : CM (complete main)
Codec ID : A_AC3
Duration : 1h 39mn
Bit rate mode : Constant
Bit rate : 384 Kbps
Channel(s) : 6 channels
Channel positions : Front: L C R, Side: L R, LFE
Sampling rate : 48.0 KHz
Bit depth : 16 bits
Stream size : 272 MiB (6%)
Title : П.Гланц и И.Королёва, AC3 Dolby Digital, 6 channels, ~384.00 kbps
Language : Russian
Audio #4
ID : 4
Format : DTS
Format/Info : Digital Theater Systems
Format profile : ES
Codec ID : A_DTS
Duration : 1h 39mn
Bit rate mode : Constant
Bit rate : 1 510 Kbps
Channel(s) : 7 channels
Channel positions : Front: L C R, Side: L R, Back: C, LFE
Sampling rate : 48.0 KHz
Bit depth : 24 bits
Stream size : 1.05 GiB (22%)
Title : Japanese DTS, 1536 Kbps, 6 channels
Language : Japanese


Трекер:  [ 27-Мар-2013 22:06 ]

  

Скачать .torrent

Размер .torrent файла 24 KB


Размер: 4.69 GB
Хэш (hash) релиза: f656082b4c067e08e0158477031ed1d40fc1ab78
Подписка на обновления:

Торренты, похожие на Призрак в доспехах 2: Невинность Ghost in the Shell 2:Innocence скачать торрент

Форум Название Автор Размер S L Добавлен
Аниме | HD Rips ·· Призрак в доспехах 2: Невинность / Ghost in the Shell 2: Innocence (Осии Мамору) [Movie] [без хардсаба] [RUS(ext), JAP+SUB] [2004 г., фантастика, киберпанк, BDRip] [1080p] Galfimbul 1526355920414.22 GB 0 0 1448181001

11:30

22-Ноя-15

Аниме | HD Rips ·· Призрак в доспехах 2: Невинность / Ghost in the Shell 2: Innocence (Осии Мамору) [Movie] [без хардсаба] [RUS(ext), JAP+SUB] [2004 г., приключения, фантастика, меха, BDRip] [1080p] Galfimbul 1492956072913.9 GB 0 0 1432381820

14:50

23-Май-15

Аниме | DVD ·· Призрак в доспехах 2: Невинность / Ghost in the Shell 2: Innocence (Мамору Осии) [Movie] [Без хардсаба] [RUS] [2008 г., фантастика, боевик, триллер, DVD5] L 46808453124.36 GB 0 0 1364410894

22:01

27-Мар-13

Аниме | Blu-Ray и BDRemux ·· Призрак в доспехах 2: Невинность / Ghost in the Shell 2: Innocence [Movie] [RUS(int),JAP+SUB] [2004 г., киберпанк, меха, фантастика, боевик] [BD Remux][любительская] L 2873094505726.76 GB 0 0 1317631427

11:43

3-Окт-11

Аниме | DVD ·· Призрак в доспехах 2 : Невинность / Ghost in the Shell 2 : Innocence [Movie] [ENG,RUS] [приключения, фантастика, меха] [DVD5] [Профессиональная] NINJA_MASTER 45825167364.27 GB 0 0 1304797051

22:37

7-Май-11

Аниме | Blu-Ray и BDRemux ·· Призрак в доспехах 2: Невинность / Ghost in the Shell 2: Innocence [Movie] [Rus,Jap+sub][2004 г., фантастика, боевик, триллер, драма, Blu-Ray Disc][1080p][Профессиональная] L 2435281531422.68 GB 0 0 1291127271

17:27

30-Ноя-10

Аниме | HD Rips ·· Призрак в доспехах 2: Невинность / Ghost in the Shell II: Innocence (Осии Мамору) [Movie] [без хардсаба] [RUS(int), JAP] [2004 г., приключения, фантастика, меха, BDRip] [1080p] L 95198611318.87 GB 0 0 1364412260

22:24

27-Мар-13

Аниме | DVD ·· Призрак в доспехах 2: Невинность / Ghost in the Shell: Innocence (Мамору Осии) [2004 г., DVD9+DVD5] L 103153503669.61 GB 0 0 1364412424

22:27

27-Мар-13

Аниме | HD Rips ·· НЕВИННОСТЬ / INNOCENCE / Ghost in the Shell 2: Innocence / Призрак в доспехах 2: Невинность [Movie] [Без хардсаба] [JAP, SUB] [2004 г., киберпанк, детектив, научная фантастика, сейнен, BDRemux] [1080p] Galfimbul 3254544572830.31 GB 0 0 1462030441

18:34

30-Апр-16

Обои, артбуки и др. ·· Призрак в доспехах 2: Невинность / Innocence: Ghost in the Shell II [Kenji Kawai] [2013 г.] Galfimbul 119052086114 MB 0 0 1376145679

17:41

10-Авг-13

Аниме | HD Rips ·· Призрак в доспехах: Невинность / Ghost in the Shell 2: Innocence (Осии Мамору) [2004 г., киберпанк, меха, фантастика, боевик, HDTVRip] L 46132778374.3 GB 0 0 1364411027

22:03

27-Мар-13

Еще никто не оставлял запись к записи скачать торрент Призрак в доспехах 2: Невинность Ghost in the Shell 2:Innocence . Будь первым!

!Обратная связь