Скачать порно через торрент Luxurious 4 Роскошные 4 UnionPeer.org бесплатно онлайн HD качество

Скачать новое порно 2015, 2014 новинки через торрент UnionPeer.org

Порно торрент бесплатно ЮнионПир.орг

Если у вас наблюдаются проблемы со скриншотами, переходом по ссылками, скачиванием торрентов - проблемы в блокировщике рекламы AdBlock. #хорошегоДня!


Статистика раздачи
Размер:  1.56 GB   |    Зарегистрирован:  4 года 4 месяца   |    .torrent скачан:  324 раза   |   
Раздают:  1  
   
Загрузка...
 
Автор Сообщение

Galfimbul

avatar Galfimbul


Оригинальное название: Luxurious 4
Год выхода: 2007
Страна: Германия
Жанр: Анальный Секс, Гонзо, Классический Секс
Продолжительность: 02:39:38
Режиссер: Эндрю Янгмен (Andrew Youngman)
Студия:
В ролях: Алетта Оушен /Aletta Ocean/, Блю Энджел /Blue Angel/, Elfie Nils, Malina, Cayenne, Hope
Перевод: Любительский (двухголосый, ПорноКино.ру)
Субтитры: нет
Дополнительно: Luxurious 5 / Роскошные 5 (Andrew Youngman, 21 Sextury) [2007 г., Vignettes, All Sex, DVDRip] [rus]
Описание: These are exactly the bitches that the fat and ugly girls hate, and the pussy guys are afraid of! So gentleman, don't hesitate, don't be pussies, and watch what the girls are here for!
Описание
Их тела - предмет вожделения миллионов, но овладеть ими под силу лишь единицам. Потому что их сексуальные харизмы и эротические навыки - бесценны. Вас ждут незабываемые три часа в обществе распалённых кисок и неистовых членов на фоне самых дорогих апартаментов Европы. А роскошные задницы и красивейшие женские тела будут нещадно и обильно сбрызнуты вулканической спермой самых неутомимых самцов на свете. Кроме всего прочего, вашим проводником в мире гламурной эротики станет интернациональная команда мегазвёзд "горячего кино": Эльфи Нильс, Малина, Кайенн, Дорис, Блю Эйнджел, Хоуп и снявший все это роскошное сексуальное бесстыдство режиссер Эндрю Янгмен. А уж они-то о сексе, красоте и эстетике знают абсолютно всё...
Формат: AVI
Видео кодек: XviD
Видео: XviD 64, 720x544 (4:3), 25 fps, 1202 kbps avg, 0.123 bit/pixel
Аудио кодек: AC3
Звук: AC3 Dolby Digital, 48 kHz, 2/0 (L,R) ch, 192.00 kbps avg
Scene 01: Cayenne Klein, James Brossman
Scene 02: Aletta Ocean, guy
Scene 03: Blue Angel, guy
Scene 04: Baby Silver, guy
Scene 05: Cindy Hope, guy
Scene 06: Linda Murray, guy
...Luxurious 4.avi
General
Complete name : Luxurious 4.avi
Format : AVI
Format/Info : Audio Video Interleave
File size : 1.56 GiB
Duration : 2h 39mn
Overall bit rate : 1 401 Kbps
Writing application : VirtualDubMod 1.5.4.1 (build 2178/release)
Writing library : VirtualDubMod build 2178/release
Video #0
ID : 0
Format : MPEG-4 Visual
Format profile : Advanced Simple@L5
Format settings, BVOP : 1
Format settings, QPel : No
Format settings, GMC : No warppoints
Format settings, Matrix : Custom
Codec ID : XVID
Codec ID/Hint : XviD
Duration : 2h 39mn
Bit rate : 1 202 Kbps
Width : 720 pixels
Height : 544 pixels
Display aspect ratio : 4:3
Frame rate : 25.000 fps
Color space : YUV
Chroma subsampling : 4:2:0
Bit depth : 8 bits
Scan type : Progressive
Compression mode : Lossy
Bits/(Pixel*Frame) : 0.123
Stream size : 1.34 GiB (86%)
Writing library : XviD 64
Audio #1
ID : 1
Format : AC-3
Format/Info : Audio Coding 3
Mode extension : CM (complete main)
Codec ID : 2000
Duration : 2h 39mn
Bit rate mode : Constant
Bit rate : 192 Kbps
Channel(s) : 2 channels
Channel positions : Front: L R
Sampling rate : 48.0 KHz
Bit depth : 16 bits
Compression mode : Lossy
Stream size : 219 MiB (14%)
Alignment : Split accross interleaves
Interleave, duration : 96 ms (2.40 video frames)
Interleave, preload duration : 96 ms
Language : Russian


Трекер:  [ 28-Мар-2013 12:13 ]

  

Скачать .torrent

Размер .torrent файла 16 KB


Размер: 1.56 GB
Хэш (hash) релиза: 9fb06fe109621b38ce75b1bf87a6357d893647e5

Торренты, похожие на Luxurious 4 Роскошные 4 скачать торрент

Форум Название Автор Размер S L Добавлен
Гонзо-фильмы ·· Luxurious 4 / Роскошные 4 (Andrew Youngman / 21Sextury) [2007 г., Beauties, Cumshots, Oral, Straight, DVDRip] Galfimbul 14666403841.37 GB 0 0 1364381724

13:55

27-Мар-13

Еще никто не оставлял запись к записи скачать торрент Luxurious 4 Роскошные 4 . Будь первым!

!Обратная связь