Скачать порно через торрент Registered Nurse 3 Дипломированная Медсестра 3 UnionPeer.org бесплатно онлайн HD качество

Скачать новое порно 2015, 2014 новинки через торрент UnionPeer.org

Порно торрент бесплатно ЮнионПир.орг

Если у вас наблюдаются проблемы со скриншотами, переходом по ссылками, скачиванием торрентов - проблемы в блокировщике рекламы AdBlock. #хорошегоДня!


Статистика раздачи
Размер:  1.79 GB   |    Зарегистрирован:  4 года 6 месяцев   |    .torrent скачан:  67 раз   |   
Раздают:  1  
   
Загрузка...
 
Автор Сообщение

Galfimbul

avatar Galfimbul


Registered Nurse 3 / Дипломированная Медсестра 3

Год производства: 2010 г. Страна: USA Жанр: Fetish, Uniform, All Sex, Straight Продолжительность: 02:02:03
Субтитры: Нет Язык: Английский
Режиссер: Jim Powers Студия: Smash Pictures
В ролях:
Alexis Texas, Jessie Andrews, Katie Jordan, Lexi Bloom, Ryder Skye, Marco Rivera, Evan Stone, Christian, Otto Bauer, Ralph Long
Описание: | IMDB |
Registered Nurse 3 Description: "Whether its servicing horny patients with their hot giving bodies or going the extra mile for the doctors they work with, these sexy babes of the medical profession are always ready to jump into action. Superstar of XXX cinema ALEXIS TEXAS leads a cast of up and cummers as they deck themselves out in sexy nurse attire and fuck every stiff cock in the entire hospital."
Качество видео: HDRip-AVC Формат видео: MKV
Видео кодек: AVC Аудио кодек: AC3
Видео: AVC | 16:9 | 1024x576 | 29.970 fps | 1 905 Kbps
Аудио: AC3 | 48.0 KHz | 2 ch | 192 Kbps
General
Complete name                    : D:\Reliz.by.unionpeer.org\Registered.Nurse.3.BDRip-AVC.Milashka.mkv
Format                           : Matroska
File size                        : 1.79 GiB
Duration                         : 2h 2mn
Overall bit rate                 : 2 099 Kbps
Encoded date                     : UTC 2010-10-14 05:38:28
Writing application              : mkvmerge v3.3.0 ('Language') built on Mar 24 2010 14:59:24
Writing library                  : libebml v0.8.0 + libmatroska v0.9.0

Video
ID                               : 1
Format                           : AVC
Format/Info                      : Advanced Video Codec
Format profile                   : High@L3.1
Format settings, CABAC           : Yes
Format settings, ReFrames        : 4 frames
Muxing mode                      : Container profile=Unknown@3.1
Codec ID                         : V_MPEG4/ISO/AVC
Duration                         : 2h 1mn
Bit rate                         : 1 865 Kbps
Nominal bit rate                 : 1 905 Kbps
Width                            : 1 024 pixels
Height                           : 576 pixels
Display aspect ratio             : 16:9
Frame rate                       : 29.970 fps
Resolution                       : 8 bits
Colorimetry                      : 4:2:0
Scan type                        : Progressive
Bits/(Pixel*Frame)               : 0.106
Stream size                      : 1.59 GiB (89%)
Writing library                  : x264 core 92 r1510 33d382a
Encoding settings                : cabac=1 / ref=4 / deblock=1:0:0 / analyse=0x3:0x113 / me=umh / subme=7 / psy=1 / psy_rd=1.00:0.00 / mixed_ref=1 / me_range=32 / chroma_me=1 / trellis=0 / 8x8dct=1 / cqm=0 / deadzone=21,11 / fast_pskip=0 / chroma_qp_offset=-2 / threads=3 / sliced_threads=0 / nr=0 / decimate=1 / interlaced=0 / constrained_intra=0 / bframes=2 / b_pyramid=2 / b_adapt=0 / b_bias=0 / direct=3 / wpredb=1 / wpredp=0 / keyint=250 / keyint_min=25 / scenecut=40 / intra_refresh=0 / rc_lookahead=60 / rc=2pass / mbtree=1 / bitrate=1905 / ratetol=1.0 / qcomp=0.60 / qpmin=10 / qpmax=51 / qpstep=4 / cplxblur=20.0 / qblur=0.5 / vbv_maxrate=14000 / vbv_bufsize=14000 / ip_ratio=1.40 / aq=1:1.00 / nal_hrd=none

Audio
ID                               : 2
Format                           : AC-3
Format/Info                      : Audio Coding 3
Codec ID                         : A_AC3
Duration                         : 2h 2mn
Bit rate mode                    : Constant
Bit rate                         : 192 Kbps
Channel(s)                       : 2 channels
Channel positions                : L R
Sampling rate                    : 48.0 KHz
Stream size                      : 168 MiB (9%)


Трекер:  [ 28-Мар-2013 12:54 ]

  

Скачать .torrent

Размер .torrent файла 18 KB


Размер: 1.79 GB
Хэш (hash) релиза: cea567221e535052af9c097483a954d86015f89f

Еще никто не оставлял запись к записи скачать торрент Registered Nurse 3 Дипломированная Медсестра 3 . Будь первым!

!Обратная связь