Скачать порно через торрент Jacks Teen America: Mission 14 Молодежная Америка Джека: Миссия 14 UnionPeer.org бесплатно онлайн HD качество

Скачать новое порно 2015, 2014 новинки через торрент UnionPeer.org

Порно торрент бесплатно ЮнионПир.орг

Если у вас наблюдаются проблемы со скриншотами, переходом по ссылками, скачиванием торрентов - проблемы в блокировщике рекламы AdBlock. #хорошегоДня!


Статистика раздачи
Размер:  1.68 GB   |    Зарегистрирован:  4 года 4 месяца   |    .torrent скачан:  85 раз   |   
Раздают:  1  
   
Загрузка...
 
Автор Сообщение

Galfimbul

avatar Galfimbul


Jack's Teen America: Mission 14
Молодежная Америка Джека: Миссия 14



Год производства: 2006 г. Страна: USA Жанр: Gonzo, Anal Продолжительность: 01:43:00
Субтитры: Нет Язык: Английский
Режиссер: Robby D. Студия: Digital Playground
В ролях:
Brandy Talore, Brooke Haven, Chris Charming, Evan Stone, Jamie Elle, Michelle Maylene, Sara Stone, Scott Nails
Описание: | IMDB |
With five lovely ladies competing for the same title, which girl will take the honors? Will Brooke or Jamie get to deliver their acceptance speech? Did Jack vote for one of their amazingly anal delights? Does Sara stand a chance of winning with her delectable titty-fuck offering? Is the slippery, wet blow-job that Brandy gave Scott as convincing as the one Michelle gave him? Which appetizing morsel will be named "Jack's Teen America" in Mission 14? Jack will walk you through the competition, taking time to savor each of the beautiful contenders. They're young, they're hot and they all want to win. Put it in now and help Jack decide who will get the crown!
Качество видео: BDRip-AVC Формат видео: MKV
Видео кодек: AVC Аудио кодек: AC3
Видео: AVC | 16:9 | 1024x576 | 29.970 fps | 2 160 Kbps
Аудио: AC3 | 48.0 KHz | 2 ch | 192 Kbps
General
Complete name                    : D:\Reliz.by.unionpeer.org\Jacks.Teen.America.Mission.14.BDRip-AVC.Milashka.mkv
Format                           : Matroska
File size                        : 1.68 GiB
Duration                         : 1h 42mn
Overall bit rate                 : 2 354 Kbps
Encoded date                     : UTC 2010-10-19 13:34:53
Writing application              : mkvmerge v3.3.0 ('Language') built on Mar 24 2010 14:59:24
Writing library                  : libebml v0.8.0 + libmatroska v0.9.0

Video
ID                               : 1
Format                           : AVC
Format/Info                      : Advanced Video Codec
Format profile                   : High@L3.1
Format settings, CABAC           : Yes
Format settings, ReFrames        : 4 frames
Muxing mode                      : Container profile=Unknown@3.1
Codec ID                         : V_MPEG4/ISO/AVC
Duration                         : 1h 42mn
Bit rate                         : 2 115 Kbps
Nominal bit rate                 : 2 160 Kbps
Width                            : 1 024 pixels
Height                           : 576 pixels
Display aspect ratio             : 16:9
Frame rate                       : 29.970 fps
Resolution                       : 8 bits
Colorimetry                      : 4:2:0
Scan type                        : Progressive
Bits/(Pixel*Frame)               : 0.120
Stream size                      : 1.51 GiB (90%)
Writing library                  : x264 core 92 r1510 33d382a
Encoding settings                : cabac=1 / ref=4 / deblock=1:0:0 / analyse=0x3:0x113 / me=umh / subme=7 / psy=1 / psy_rd=1.00:0.00 / mixed_ref=1 / me_range=32 / chroma_me=1 / trellis=0 / 8x8dct=1 / cqm=0 / deadzone=21,11 / fast_pskip=0 / chroma_qp_offset=-2 / threads=3 / sliced_threads=0 / nr=0 / decimate=1 / interlaced=0 / constrained_intra=0 / bframes=2 / b_pyramid=2 / b_adapt=0 / b_bias=0 / direct=3 / wpredb=1 / wpredp=0 / keyint=250 / keyint_min=25 / scenecut=40 / intra_refresh=0 / rc_lookahead=60 / rc=2pass / mbtree=1 / bitrate=2160 / ratetol=1.0 / qcomp=0.60 / qpmin=10 / qpmax=51 / qpstep=4 / cplxblur=20.0 / qblur=0.5 / vbv_maxrate=14000 / vbv_bufsize=14000 / ip_ratio=1.40 / aq=1:1.00 / nal_hrd=none

Audio
ID                               : 2
Format                           : AC-3
Format/Info                      : Audio Coding 3
Codec ID                         : A_AC3
Duration                         : 1h 42mn
Bit rate mode                    : Constant
Bit rate                         : 192 Kbps
Channel(s)                       : 2 channels
Channel positions                : L R
Sampling rate                    : 48.0 KHz
Stream size                      : 141 MiB (8%)
Релиз группы:


Трекер:  [ 28-Мар-2013 13:01 ]

  

Скачать .torrent

Размер .torrent файла 17 KB


Размер: 1.68 GB
Хэш (hash) релиза: e3b0599eadd3233d2a427551f4a3e86e0e7320a3

Еще никто не оставлял запись к записи скачать торрент Jacks Teen America: Mission 14 Молодежная Америка Джека: Миссия 14 . Будь первым!

!Обратная связь